PDA

View Full Version : [อินเดีย]-***กรุณาอ่านก่อนโหลด*** Dhoom บิดท้านรก ภาค 1-3 (2004-2013) 1080p-DTS-Blu ray-HEVC-H.265-AAA-[พากย์ไทย บรรยายไทย]



Duckload.us
06-06-2017, 11:46 AM
https://www.mx7.com/i/535/bCLoW0.jpg

***

ไฟล์นี้เป็นระบบ HEVC (High Efficiency Video Coding) H.265

ไม่สามารถเปิดชมได้จากเครื่องเล่นทั่วไป

สามารถใช้ โปรแกรมคอมฯ หรือเครื่องเล่นรุ่นใหม่ที่รองรับระบบ เท่านั้น

หมายเหตุ SS ใช้โปรแกรมจับภาพ Image Grabber 2.2.0 ได้แล้วครับ

***

1 บิดท้านรก Dhoom (2004) 1080p
พากย์ ฮินดี DTS ไทย AAC บรรยาย อังกฤษ
SS = http://showss.net/images/2015/09/24/dhoom1.jpg

Jai นายตำรวจ ที่ได้รับหน้าที่ให้ปราบปรามโจรแก๊งมอเตอร์ไซด์
หลังจากปล้น แล้วหายไปอย่างรวดเร็ว ไร้ร่องรอย
โดยมี Kabir เป็นหัวหน้าแก๊ง ที่แอบแฝงเข้ามาเป็นพนักงานร้านพิซซ่า
และเมื่อเขารู้ว่า คราวนี้กลุ่มโจรวางแผนจะปล้นตู้เซฟของบ่อนคาสิโน
ทำให้ Jai ต้องคิดหาวิธีการจัดการให้ได้

Jai จะหาทางปราบปรามแก๊งนี้ได้อย่างไร
จุดจบของโจรแก๊งป่วนเมืองจะลงเอยตรงไหน
เชิญโหลดไปชมได้เลย !!!

General
Unique ID : 193153145042913862354219709774265517876 (0x914FF14D84754A24B56B50C2C0CF0734)
Complete name : 1 บิดท้านรก Dhoom (2004) 1080p.mkv
Format : Matroska
Format version : Version 2
File size : 5.13 GiB
Duration : 2h 9mn
Overall bit rate : 5 683 Kbps
Encoded date : UTC 2015-09-23 20:00:36
Writing application : mkvmerge v4.4.0 ( Die Wiederkehr ) built on Oct 31 2010 21:52:48
Writing library : libebml v1.0.0 + libmatroska v1.0.0

Video
ID : 1
Format : HEVC
Format/Info : High Efficiency Video Coding
Codec ID : V_MPEGH/ISO/HEVC
Duration : 2h 9mn
Width : 1 920 pixels
Height : 816 pixels
Display aspect ratio : 2.35:1
Frame rate mode : Constant
Frame rate : 24.000 fps
Language : Hindi
Default : Yes
Forced : No

Audio #1
ID : 2
Format : AAC
Format/Info : Advanced Audio Codec
Format profile : LC
Codec ID : A_AAC
Duration : 2h 9mn
Channel(s) : 6 channels
Channel positions : Front: L C R, Side: L R, LFE
Sampling rate : 44.1 KHz
Compression mode : Lossy
Title : thai
Language : Thai
Default : Yes
Forced : No

Audio #2
ID : 3
Format : DTS
Format/Info : Digital Theater Systems
Mode : 16
Format settings, Endianness : Big
Muxing mode : Header stripping
Codec ID : A_DTS
Duration : 2h 9mn
Bit rate mode : Constant
Bit rate : 1 509 Kbps
Channel(s) : 6 channels
Channel positions : Front: L C R, Side: L R, LFE
Sampling rate : 48.0 KHz
Bit depth : 24 bits
Compression mode : Lossy
Delay relative to video : 11ms
Stream size : 1.36 GiB (27%)
Title : Hindi DTS
Language : Hindi
Default : No
Forced : No

Text
ID : 4
Format : UTF-8
Codec ID : S_TEXT/UTF8
Codec ID/Info : UTF-8 Plain Text
Title : Eng
Language : English
Default : Yes
Forced : No

Menu
00:00:00.000 : :00:00:00.000
00:04:49.000 : :П е с н я - Shikdum
00:10:10.458 : :00:10:10.458
00:12:25.541 : :00:12:25.541
00:16:57.875 : :00:16:57.875
00:22:23.416 : :00:22:23.416
00:25:25.416 : :00:25:25.416
00:33:04.250 : :00:33:04.250
00:35:41.708 : :00:35:41.708
00:40:06.291 : :00:40:06.291
00:43:30.750 : :00:43:30.750
00:51:33.583 : :П е с н я - Dilbara
00:56:09.958 : :00:56:09.958
00:59:51.583 : :00:59:51.583
01:02:40.666 : :01:02:40.666
01:07:42.000 : :01:07:42.000
01:08:53.375 : :П е с н я - Dhoom Machale
01:15:16.958 : :01:15:16.958
01:19:34.083 : :01:19:34.083
01:25:58.916 : :01:25:58.916
01:29:59.750 : :01:29:59.750
01:32:35.916 : :01:32:35.916
01:35:33.875 : :01:35:33.875
01:39:43.791 : :П е с н я - Salaame
01:45:27.333 : :01:45:27.333
01:50:19.500 : :01:50:19.500
01:55:21.166 : :01:55:21.166
02:05:56.500 : :П е с н я - Dhoom Dhoom

XXXXXXXXXXXXXXXXXXXXXXXXXXXXXXXXXXXXXXXXXXXXXXXXXX XXXXXXXXX

2 เหิรฟ้าท้านรก Dhoom (2006) 1080p
พากย์ ฮินดี DTS ไทย AAC บรรยาย อังกฤษ อาราบิค
SS = http://showss.net/images/2015/09/24/dhoom2.jpg

ฝันของ ALI เป็นจริง เมื่อได้เข้ามาเป็นมือขวาของ ACP JAI
เขาพยายามกำจัดอาชญากรในประเทศอินเดีย Mr. A นักโจรกรรมระหว่างประเทศสุดไฮเทค
ซึ่งเป้าหมายถัดไปของเขา คือ มุมไบ ประเทศอินเดีย

คนที่จะมาช่วยต่อจิ๊กซอว์ให้กับเรื่องนี้ร่วมกับ ACP JAI และ ALI ก็คือ
ACP SHONALI BOSE เพื่อนร่วมวิทยาลัยของ JAI 2 ปีที่เธอติดตามเรื่องนี้
ทำให้ได้พบกับ SUNEHRI ที่แสนจะฉลาดในด้านโจรกรรมและหาตัวจับได้ยาก

เธอจะเข้ามาเกี่ยวข้องเรื่องนี้อย่างไร โปรดติดตาม !!

General
Unique ID : 180009126266843277296072296231642883567 (0x876C7F24B7EEB9D99E34558D4F6C65EF)
Complete name : 2 เหิรฟ้าท้านรก Dhoom (2006) 1080p.mkv
Format : Matroska
Format version : Version 2
File size : 6.02 GiB
Duration : 2h 31mn
Overall bit rate : 5 680 Kbps
Encoded date : UTC 2015-09-23 16:10:23
Writing application : mkvmerge v4.4.0 ( Die Wiederkehr ) built on Oct 31 2010 21:52:48
Writing library : libebml v1.0.0 + libmatroska v1.0.0

Video
ID : 1
Format : HEVC
Format/Info : High Efficiency Video Coding
Codec ID : V_MPEGH/ISO/HEVC
Duration : 2h 31mn
Width : 1 920 pixels
Height : 816 pixels
Display aspect ratio : 2.35:1
Frame rate mode : Constant
Frame rate : 24.000 fps
Language : Hindi
Default : Yes
Forced : No

Audio #1
ID : 2
Format : AAC
Format/Info : Advanced Audio Codec
Format profile : LC
Codec ID : A_AAC
Duration : 2h 31mn
Channel(s) : 6 channels
Channel positions : Front: L C R, Side: L R, LFE
Sampling rate : 44.1 KHz
Compression mode : Lossy
Title : Thai AAC
Language : Thai
Default : Yes
Forced : No

Audio #2
ID : 3
Format : DTS
Format/Info : Digital Theater Systems
Mode : 16
Format settings, Endianness : Big
Muxing mode : Header stripping
Codec ID : A_DTS
Duration : 2h 31mn
Bit rate mode : Constant
Bit rate : 1 509 Kbps
Channel(s) : 6 channels
Channel positions : Front: L C R, Side: L R, LFE
Sampling rate : 48.0 KHz
Bit depth : 24 bits
Compression mode : Lossy
Delay relative to video : 11ms
Stream size : 1.60 GiB (27%)
Title : Hindi DTS
Language : Hindi
Default : No
Forced : No

Text #1
ID : 4
Format : PGS
Muxing mode : zlib
Codec ID : S_HDMV/PGS
Codec ID/Info : Picture based subtitle format used on BDs/HD-DVDs
Title : Eng
Language : English
Default : No
Forced : No

Text #2
ID : 5
Format : PGS
Muxing mode : zlib
Codec ID : S_HDMV/PGS
Codec ID/Info : Picture based subtitle format used on BDs/HD-DVDs
Title : Arabic
Language : Arabic
Default : No
Forced : No

Menu
00:00:00.000 : en:Chapter 1
00:07:07.583 : en:Chapter 2
00:10:24.083 : en:Chapter 3
00:18:14.458 : en:Chapter 4
00:30:50.875 : en:Chapter 5
00:36:13.625 : en:Chapter 6
00:50:10.166 : en:Chapter 7
01:02:42.208 : en:Chapter 8
01:07:49.750 : en:Chapter 9
01:17:53.791 : en:Chapter 10
01:24:46.458 : en:Chapter 11
01:34:38.291 : en:Chapter 12
01:39:18.708 : en:Chapter 13
01:49:01.125 : en:Chapter 14
01:56:24.125 : en:Chapter 15
02:01:28.500 : en:Chapter 16
02:08:51.291 : en:Chapter 17
02:11:55.791 : en:Chapter 18
02:17:25.000 : en:Chapter 19
02:29:17.083 : en:Chapter 20
02:31:43.708 : en:Chapter 21

XXXXXXXXXXXXXXXXXXXXXXXXXXXXXXXXXXXXXXXXXXXXXXXXXX XXXXXXXXX

3 มหกรรมล่า คนเหนือเมฆ Dhoom (2014) 1080p
พากย์ ฮินดี DTS ไทย AAC บรรยาย อังกฤษ ไทย ฮินดี
SS = http://showss.net/images/2015/09/24/dhoom3.jpg

เรื่องราวของสุดยอดตำรวจพิเศษ ไจ (อภิเษก พัจจัน)
และลูกน้องสุดฮา อาลี (อูเดย์ โชปรา) กับภารกิจในการไล่จับอาชญากรไฮเทคทั่วประเทศอินเดีย
ครั้งนี้พวกเขาต้องเจอกับผู้ร้ายตัวเอ้ถึงสองคนอย่าง จอร์แดน (อาเมียร์ ข่าน) และ รัดธิกา (คาทริน่า เคฟ) ที่การันตีว่า

จะต้องเป็นการไล่ล่าที่มันส์ที่สุดแบบไม่เคยมีมาก่อน !!!

General
Unique ID : 176891007507629981626400491035115738503 (0x8513F804ED4395E0A217B3B8B6755587)
Complete name : 3 มหกรรมล่า คนเหนือเมฆ Dhoom (2014) 1080p.mkv
Format : Matroska
Format version : Version 2
File size : 5.64 GiB
Duration : 2h 51mn
Overall bit rate : 4 724 Kbps
Encoded date : UTC 2015-09-23 16:28:43
Writing application : mkvmerge v4.4.0 ( Die Wiederkehr ) built on Oct 31 2010 21:52:48
Writing library : libebml v1.0.0 + libmatroska v1.0.0

Video
ID : 1
Format : HEVC
Format/Info : High Efficiency Video Coding
Codec ID : V_MPEGH/ISO/HEVC
Duration : 2h 51mn
Bit rate : 2 737 Kbps
Width : 1 920 pixels
Height : 816 pixels
Display aspect ratio : 2.35:1
Frame rate mode : Constant
Frame rate : 24.000 fps
Bits/(Pixel*Frame) : 0.073
Stream size : 3.27 GiB (58%)
Language : Hindi
Default : Yes
Forced : No

Audio #1
ID : 2
Format : AC-3
Format/Info : Audio Coding 3
Mode extension : CM (complete main)
Format settings, Endianness : Big
Muxing mode : Header stripping
Codec ID : A_AC3
Duration : 2h 51mn
Bit rate mode : Constant
Bit rate : 384 Kbps
Channel(s) : 6 channels
Channel positions : Front: L C R, Side: L R, LFE
Sampling rate : 48.0 KHz
Compression mode : Lossy
Stream size : 470 MiB (8%)
Title : Thai DVD Master
Language : Thai
Default : Yes
Forced : Yes

Audio #2
ID : 3
Format : DTS
Format/Info : Digital Theater Systems
Mode : 16
Format settings, Endianness : Big
Muxing mode : Header stripping
Codec ID : A_DTS
Duration : 2h 51mn
Bit rate mode : Constant
Bit rate : 1 509 Kbps
Channel(s) : 6 channels
Channel positions : Front: L C R, Side: L R, LFE
Sampling rate : 48.0 KHz
Bit depth : 24 bits
Compression mode : Lossy
Delay relative to video : 11ms
Stream size : 1.80 GiB (32%)
Title : Hindi DTS
Language : Hindi
Default : No
Forced : No

Text #1
ID : 4
Format : VobSub
Muxing mode : zlib
Codec ID : S_VOBSUB
Codec ID/Info : Picture based subtitle format used on DVDs
Title : Thai 1080p
Language : Thai
Default : No
Forced : No

Text #2
ID : 5
Format : VobSub
Muxing mode : zlib
Codec ID : S_VOBSUB
Codec ID/Info : Picture based subtitle format used on DVDs
Title : Thai 1080p Yellow
Language : Thai
Default : No
Forced : No

Text #3
ID : 6
Format : VobSub
Muxing mode : zlib
Codec ID : S_VOBSUB
Codec ID/Info : Picture based subtitle format used on DVDs
Title : Thai 1080p Out [BIG]
Language : Thai
Default : No
Forced : No

Text #4
ID : 7
Format : PGS
Muxing mode : zlib
Codec ID : S_HDMV/PGS
Codec ID/Info : Picture based subtitle format used on BDs/HD-DVDs
Title : Thai PGS
Language : Thai
Default : No
Forced : No

Text #5
ID : 8
Format : PGS
Muxing mode : zlib
Codec ID : S_HDMV/PGS
Codec ID/Info : Picture based subtitle format used on BDs/HD-DVDs
Title : English
Language : English
Default : No
Forced : No

Text #6
ID : 9
Format : UTF-8
Codec ID : S_TEXT/UTF8
Codec ID/Info : UTF-8 Plain Text
Title : Hindi
Language : Hindi
Default : No
Forced : No

Menu
00:00:00.000 : en:Chapter 1
00:10:33.791 : en:Chapter 2
00:13:59.083 : en:Chapter 3
00:22:16.125 : en:Chapter 4
00:25:17.541 : en:Chapter 5
00:34:42.958 : en:Chapter 6
00:43:39.166 : en:Chapter 7
00:48:19.833 : en:Chapter 8
01:11:15.000 : en:Chapter 9
01:18:25.291 : en:Chapter 10
01:26:10.416 : en:Chapter 11
01:40:41.083 : en:Chapter 12
01:46:03.958 : en:Chapter 13
02:05:42.833 : en:Chapter 14
02:19:06.000 : en:Chapter 15
02:26:26.541 : en:Chapter 16
02:37:58.000 : en:Chapter 17
02:44:23.875 : en:Chapter 18
02:45:43.125 : en:Chapter 19
02:47:18.708 : en:Chapter 20


http://www.duckload.ws/forum/images/icons/icon8.png
1
http://cornfile.com/ks0gzhjaten8
2
http://cornfile.com/atlo0pf5qrl3
3
http://cornfile.com/wa8q6sqef51w

http://www.duckload.ws/pic/fzfile.png
1
http://fzfile.com/ycn09l75in4p
2
http://fzfile.com/w4eeymho2vi6
3
http://fzfile.com/00bsoh2lrh32

http://www.duckload.ws/forum/images/icons/icon5.png
1
http://zapfile.net/se9wthk5e8hy/1.Dhoom_(2004)_1080p.mkv.html
2
http://zapfile.net/veeardzcdt5x/2.Dhoom_(2006)_1080p.mkv.html
3
http://zapfile.net/41hus65ziawi/3.Dhoom_(2014)_1080p.mkv.html