PDA

View Full Version : สุดยอดแห่งความดราม่า [EPL Finale] 13-05-55 Manchester City - Queens Park Rangers [พากย์ไทย TS HD2]-Remux.H.264.720p.



Duckload.us
05-15-2012, 10:22 AM
http://upic.me/i/6y/201205132057-tshd2-manc-qpr_match-daylive2.mkv.jpg (http://upic.me/show/35638444) http://upic.me/i/sp/17h81.jpg (http://upic.me/show/35638447) http://upic.me/i/e7/qefc2.jpg (http://upic.me/show/35638449) http://upic.me/i/bx/pjis3.jpg (http://upic.me/show/35638450) http://upic.me/i/cn/l3bf4.jpg (http://upic.me/show/35638451)

อัดจาก TS HD2 ถ่ายทอดผ่านระบบ HD 1080p Bitrate 8 MBps ครับ
สุดยอดแห่งความดราม่า ลุ้นจนวินาทีสุดท้าย ใครเป็นแชมป์หลายท่านคงทราบแล้ว ลองกลับไปดูกันอีกครั้งครับ

General
Unique ID : 171191084253218278265833809917056045831 (0x80CA341B094210CFAB7F9A1B1696D307)
Complete name : H:REC20120513 2057 - TS HD2 - MANC-QPR_Match-day Live2.mkv
Format : Matroska
Format version : Version 1
File size : 1.47 GiB
Duration : 2h 8mn
Overall bit rate : 1 637 Kbps
Encoded date : UTC 2012-05-13 20:41:09
Writing application : AVSMatroskaFile
Writing library : libebml v0.7.7 + libmatroska v0.8.1
Video #1
ID : 1
Format : AVC
Format/Info : Advanced Video Codec
Format profile : [email protected]
Format settings , CABAC : Yes
Format settings , ReFrames : 1 frame
Codec ID : V_MPEG4/ISO/AVC
Duration : 2h 8mn
Bit rate : 1 476 Kbps
Width : 1 280 pixels
Height : 720 pixels
Display aspect ratio : 16:9
Frame rate : 25.000 fps
Color space : YUV
Chroma subsampling : 4:2:0
Bit depth : 8 bits
Scan type : Progressive
Bits/(Pixel*Frame) : 0.064
Stream size : 1.32 GiB (90%)
Audio #2
ID : 2
Format : MPEG Audio
Format version : Version 1
Format profile : Layer 2
Codec ID : A_MPEG/L2
Codec ID/Hint : MP2
Duration : 2h 8mn
Bit rate mode : Constant
Bit rate : 128 Kbps
Channel(s) : 2 channels
Sampling rate : 44.1 KHz
Compression mode : Lossy
Stream size : 118 MiB (8%)

http://www.filecondo.com/dl.php?f=78c1f11stYqP

boatham
07-29-2012, 08:03 PM
ขอบคุณมากครับ