PDA

View Full Version : []-[Mini-Hidef] Speed 1994 - ʻմ ǡҹá[ҡ:ѧ/][SUB:/ѧ]720p - CtHts-MiniBD.Other.720p. [Modified]-[ҡ]



Duckload.us
09-15-2012, 03:18 PM
http://postto.me/tn/172809_0.830166.jpg (http://postto.me/show.php?id=abdfb98aa9f46cd24c68b73cdea7aed1)

Speed 1994 : ʻմ ǡҹá

Speed 1994 : ʻմ ǡҹá

ͧ :

áԨӤѭ˭Ҷ֧ ǹ.(ҹ տ). Ǩ˹¡ҵ. . ջҳ٧㹡ҧҪҡ öШӷҧѹ˹觶١ҧԴ ªǹШشö蹴¤ǵӡ 50 ͪ ˵͹ѭ .(ഹ ͻ).ҪҡäԵͺ µǨ˹Ѻ͹.(ਿ ). 㹡ûзСѹ͹˹ҹ ĵ١Ѻ˹͹.(᫹ ͤ).¤ͧǷͧѺ˹ҷ ӪԵ͹еҡ §ҧзա .شʻմѺҾ¹礪Թҹ ͧس Դѧ..


SS:

http://postto.me/ts/nub13.jpg (http://postto.me/show.php?id=bf13d70eb11cf40fc475c0bf69902858)

http://postto.me/tn/s9z14.jpg (http://postto.me/show.php?id=8a6b3369a4fac8c364ea521f99c2715f)

http://postto.me/tk/0n0911.jpg (http://postto.me/show.php?id=ee15022e3194fb59a0cafd40ec1f2d92)

http://postto.me/th/avf12.jpg (http://postto.me/show.php?id=b6ccc85db9391df96f3ea8787cdfe518)

Format : Matroska
File size : 3.45 GiB
Duration : 1h 55mn
Overall bit rate : 4 267 Kbps
Encoded date : UTC 2011-11-03 23:20:33
Writing application : mkvmerge v3.4.0 ( Rapunzel ) built on May 15 2010 09:38:20
Writing library : libebml v0.8.0 + libmatroska v0.9.0

Video
ID : 1
Format : AVC
Format/Info : Advanced Video Codec
Format profile : [email protected]
Format settings , CABAC : Yes
Format settings , ReFrames : 3 frames
Muxing mode : Container [email protected]
Codec ID : V_MPEG4/ISO/AVC
Duration : 1h 55mn
Bit rate : 3 362 Kbps
Width : 1 280 pixels
Height : 720 pixels
Display aspect ratio : 16:9
Frame rate : 23.976 fps
Color space : YUV
Chroma subsampling : 4:2:0
Bit depth : 8 bits
Scan type : Progressive
Bits/(Pixel*Frame) : 0.152
Stream size : 2.66 GiB (77%)
Writing library : x264 core 79 r1342kMod e8501ef
Encoding settings : cabac=1 / ref=3 / deblock=1:-1:-1 / analyse=0x3:0x133 /
me=umh / subme=10 / psy=1 / psy_rd=1.0:0.1 / mixed_ref=1 / me_range=16 /
chroma_me=1 / trellis=2 / 8x8dct=1 / cqm=0 / deadzone=21 , 11 / chroma_qp_offset=-3
/ threads=6 / nr=0 / decimate=1 / mbaff=0 / constrained_intra=0 / bframes=3 /
b_pyramid=0 / b_adapt=2 / b_bias=0 / direct=3 / wpredb=1 / wpredp=2 / keyint=250 /
keyint_min=25 / scenecut=40 / rc_lookahead=50 / rc=2pass / mbtree=1 / bitrate=3362 /
ratetol=1.0 / qcomp=0.60 / qpmin=10 / qpmax=51 / qpstep=4 / cplxblur=20.0 /
qblur=0.5 / ip_ratio=1.40 / aq=1:1.00

Language : English

Audio #1
ID : 2
Format : AC-3
Format/Info : Audio Coding 3
Mode extension : CM (complete main)
Codec ID : A_AC3
Duration : 1h 55mn
Bit rate mode : Constant
Bit rate : 448 Kbps
Channel(s) : 6 channels
Channel positions : Front: L C R , Side: L R , LFE
Sampling rate : 48.0 KHz
Stream size : 371 MiB (10%)
Language : English

Audio #2
ID : 3
Format : AC-3
Format/Info : Audio Coding 3
Mode extension : CM (complete main)
Codec ID : A_AC3
Duration : 1h 55mn
Bit rate mode : Constant
Bit rate : 448 Kbps
Channel(s) : 6 channels
Channel positions : Front: L C R , Side: L R , LFE
Sampling rate : 48.0 KHz
Stream size : 371 MiB (10%)
Language : Thai

Text #1
ID : 4
Format : VobSub
Codec ID : S_VOBSUB
Codec ID/Info : The same subtitle format used on DVDs
Language : Thai

Text #2
ID : 5
Format : VobSub
Codec ID : S_VOBSUB
Codec ID/Info : The same subtitle format used on DVDs
Language : English

---------------------------------------------------------------------------

Credit CtHts Team

ôԵ س˹ komkam

http://www.filecondo.com/dl.php?f=G1ff9c1tcUVw

gemini4013
09-15-2012, 03:40 PM
ͺسҡѺҹ....㨪ҧԧ

asus-2906
09-15-2012, 08:02 PM
§鹩ѺлǷҹ ͺسҡѺҹ

yonaray
09-15-2012, 11:02 PM
ͺسҡѺ 㨷

chatchai995
09-16-2012, 09:01 AM
Ҥ 2 Ѻ

ohmsuradech
09-16-2012, 04:59 PM
ͺسҡѺ شʹ

men555
09-17-2012, 12:31 PM
ͺϤѺ

paiboon
09-23-2012, 12:43 PM
ͺسҡѺ

blue_hay
11-30-2012, 08:23 PM
ͺسҡ¤Ѻ

praewanit
10-04-2013, 12:37 PM
Thanks ka xx