PDA

View Full Version : [ฝรั่ง]- The Silence Of The Lambs (1991) / อำมหิตไม่เงียบ [Remux.DTS.1080p.CtHts] [Modified]-[เสียงอังกฤษ DTS+พากย์ไทย 2.0]-[บรรยายไทย+อังกฤษ]



Duckload.us
10-28-2012, 10:55 AM
http://upic.me/i/60/the-silence-of-the-lambs-zeza.jpg



Quote:

...คลาริซ สตาร์ลิ่ง (โจดี้ ฟอสเตอร์) เอฟบีไอสาว ได้รับมอบหมายให้ตามหาหญิงสาวผู้สูญหาย
เพื่อช่วยชีวิตเธอคนนั้นจากฆาตกรต่อเนื่องโรคจิตผู้ช อบถลกหนังเหยื่อทุกราย
และเพื่อที่จะทำความเข้าใจความคิดเบื้องลึกของฆาตกรไ ด้มากขึ้น คลาลิซ จึงได้เข้าไปหาเพื่อพูดคุยกับฆาตกรโรคจิตอีกคนที่ถูก จำคุกอยู่
คือ ฮันนิบาล เลกเตอร์ (แอนโธนี่ ฮอปกิ้นส์) ผู้เคยเป็นถึงจิตแพทย์และยังฉลาดเป็นกรด คลาริซ ที่ต้องการให้
ฮันนิบาล ช่วยในการตามหาฆาตกรจึงพยายามทำทุกวิถีทางให้ ฮันนิบาล
ยอมเผยข้อมูลที่เป็นประโยชน์กับการช่วยเหลือเหยื่อคร ั้งนี้ของเธอให้ได้!!





Quote:

Format : Matroska
File size : 8.94 GiB
Duration : 1h 58mn
Overall bit rate : 10.8 Mbps
Movie name : The.Silence.Of.The.Lambs.1991.1080p.BluRay.x264.Ct Hts - PORSC
Encoded date : UTC 2012-10-27 23:19:16
Writing application : mkvmerge v4.2.0 ( No Talking ) built on Jul 28 2010 18:38:23
Writing library : libebml v1.0.0 + libmatroska v1.0.0

Video
ID : 1
Format : AVC
Format/Info : Advanced Video Codec
Format profile : [email protected]
Format settings, CABAC : Yes
Format settings, ReFrames : 4 frames
Muxing mode : Container [email protected]
Codec ID : V_MPEG4/ISO/AVC
Duration : 1h 58mn
Bit rate : 8 856 Kbps
Nominal bit rate : 9 055 Kbps
Width : 1 920 pixels
Height : 1 040 pixels
Display aspect ratio : 16:9
Frame rate : 23.976 fps
Resolution : 8 bits
Colorimetry : 4:2:0
Scan type : Progressive
Bits/(Pixel*Frame) : 0.185
Stream size : 7.32 GiB (82%)

Audio #1
ID : 2
Format : DTS
Format/Info : Digital Theater Systems
Codec ID : A_DTS
Duration : 1h 58mn
Bit rate mode : Constant
Bit rate : 1 510 Kbps
Channel(s) : 6 channels
Channel positions : Front: L C R, Side: L R, LFE
Sampling rate : 48.0 KHz
Resolution : 24 bits
Stream size : 1.25 GiB (14%)
Title : English DTS

Audio #2
ID : 3
Format : AC-3
Format/Info : Audio Coding 3
Format profile : Dolby Digital
Codec ID : A_AC3
Duration : 1h 58mn
Bit rate mode : Constant
Bit rate : 224 Kbps
Channel(s) : 2 channels
Channel positions : Front: L R
Sampling rate : 48.0 KHz
Stream size : 190 MiB (2%)
Title : Thai.AC3.DVD.Master
Language : Thai

Text #1
ID : 4
Format : VobSub
Codec ID : S_VOBSUB
Codec ID/Info : The same subtitle format used on DVDs
Title : Thai 480p
Language : Thai

Text #2
ID : 5
Format : VobSub
Codec ID : S_VOBSUB
Codec ID/Info : The same subtitle format used on DVDs
Title : Thai 1080p
Language : Thai

Text #3
ID : 6
Format : VobSub
Codec ID : S_VOBSUB
Codec ID/Info : The same subtitle format used on DVDs
Title : Thai 1080p Out
Language : Thai

Text #4
ID : 7
Format : UTF-8
Codec ID : S_TEXT/UTF8
Codec ID/Info : UTF-8 Plain Text
Title : English


ขอบคุณซับไทยคมชัดจากคุณ gugudoll ครับ http://siambit.org/pic/smilies/em34.gif



Quote:
SS-จับจากตัวไฟล์ครับ
http://upic.me/i/ak/vlcsnap-2012-10-28-07h19m17s41.png
http://upic.me/i/u5/vlcsnap-2012-10-28-07h26m51s243.png
http://upic.me/i/tn/vlcsnap-2012-10-28-07h26m37s100.png
http://upic.me/i/ma/vlcsnap-2012-10-28-07h21m43s228.png
http://upic.me/i/dk/vlcsnap-2012-10-28-07h22m05s204.png
http://upic.me/i/co/vlcsnap-2012-10-28-07h27m35s175.png




http://postto.me/is/ci0amjw8.png

http://www.youtube.com/watch?v=09TAIcCqFpg&feature=player_embedded

http://www.filecondo.com/dl.php?f=Sdd1431tskTr