PDA

View Full Version : [Full Match] EPL - Sunderland vs Manchester United 30.03.13-Encode.Other.720p.



Duckload.us
03-31-2013, 03:39 PM
http://i112.photobucket.com/albums/n183/palizzo/Sunderland%20vs%20Manchester%20300313/vlcsnap-2013-03-31-07h49m51s182_zpsf75fefe5.png

http://i112.photobucket.com/albums/n183/palizzo/Sunderland%20vs%20Manchester%20300313/vlcsnap-2013-03-31-07h50m13s132_zps7cac8a0d.png

http://i112.photobucket.com/albums/n183/palizzo/Sunderland%20vs%20Manchester%20300313/vlcsnap-2013-03-31-07h50m51s9_zpsbd7ec072.png

Video
ID : 70 (0x46)
Menu ID : 1 (0x1)
Format : AVC
Format/Info : Advanced Video Codec
Format profile : [email protected]
Format settings, CABAC : Yes
Format settings, ReFrames : 7 frames
Codec ID : 27
Duration : 51mn 31s
Bit rate : 1 904 Kbps
Width : 1 280 pixels
Height : 720 pixels
Display aspect ratio : 16:9
Frame rate : 25.000 fps
Color space : YUV
Chroma subsampling : 4:2:0
Bit depth : 8 bits
Scan type : Progressive
Bits/(Pixel*Frame) : 0.083
Stream size : 700 MiB (90%)
Writing library : x264 core 115 r2013 6fce39a
Encoding settings : cabac=1 / ref=7 / deblock=1:0:0 / analyse=0x3:0x13 / me=hex / subme=7 / psy=1 / psy_rd=1.00:0.00 / mixed_ref=1 / me_range=16 / chroma_me=1 / trellis=0 / 8x8dct=1 / cqm=0 / deadzone=21,11 / fast_pskip=1 / chroma_qp_offset=-2 / threads=12 / sliced_threads=0 / nr=0 / decimate=1 / interlaced=0 / bluray_compat=0 / constrained_intra=0 / bframes=3 / b_pyramid=2 / b_adapt=1 / b_bias=0 / direct=1 / weightb=1 / open_gop=0 / weightp=2 / keyint=250 / keyint_min=25 / scenecut=90 / intra_refresh=0 / rc_lookahead=40 / rc=cbr / mbtree=1 / bitrate=1904 / ratetol=1.0 / qcomp=0.60 / qpmin=10 / qpmax=51 / qpstep=4 / vbv_maxrate=1904 / vbv_bufsize=19040 / nal_hrd=none / ip_ratio=2.00 / aq=1:1.00

Audio
ID : 69 (0x45)
Menu ID : 1 (0x1)
Format : MPEG Audio
Format version : Version 1
Format profile : Layer 3
Mode : Joint stereo
Mode extension : MS Stereo
Codec ID : 3
Duration : 51mn 31s
Bit rate mode : Constant
Bit rate : 96.0 Kbps
Channel(s) : 2 channels
Sampling rate : 44.1 KHz
Compression mode : Lossy
Delay relative to video : -29ms
Stream size : 35.4 MiB (5%)

1
http://www.filecondo.com/dl.php?f=Ha57391umbVD

2
http://www.filecondo.com/dl.php?f=c26b571umbWq