PDA

View Full Version : ใหม่ร้อนๆ! [* เล็กพริกขี้หนู 1080p Super HQ *] Deep Sea Challenge (2014) : ดิ่งระทึกลึกสุดโลก -CtHts. [พากย์ไทย 5.1 + อังกฤษ [email protected]]-[บรรยายไทย + อังกฤษ]-[เสียงไทย + ซับไทย MASTER]



Duckload.us
11-16-2014, 10:02 AM
http://www.jenpic.com/images/2014/11/14/deepsea-challenge-3d-BD-1TFjDb.jpg


http://www.jenpic.com/images/2013/04/06/aplotEdkeR.gif wrote:

...Deep sea Challenge เป็นภาพยนตร์ผจญภัย สารคดีฟอร์มยักษ์ที่ เจมส์ คาเมรอน ร่วมกับ National Geographic (เนชันแนล จีโอกราฟฟิก)
สร้างปฏิบัติการอันน่าเหลือเชื่อเท่าที่มนุษย์คนหนึ่ งจะทำได้ให้เป็นจริงในการดำดิ่งสู่ใต้มหาสมุทรที่ควา มลึกมากกว่า 36,000 ฟุต
บริเวณมหาสมุทรมาเรียน่า ใกล้กับเกาะกวมพน่อม กับยานดำน้ำที่พัฒนาขึ้นเพื่อปฏิบัติการครั้งนี้โดยเ ฉพาะตามลำพัง
พร้อมกับต้องฝ่าอันตรายนานัปการที่เกิดขึ้นจากความท้ าทายของธรรมชาติ และการแก้ปัญหาเฉพาะหน้าสุดระทึก!!!


http://www.jenpic.com/images/2013/04/06/0info1A7eHI.gif wrote:

Format : Matroska
Format version : Version 4 / Version 2
File size : 3.94 GiB
Duration : 1h 31mn
Overall bit rate : 6 185 Kbps
Movie name : {MINI Super-HQ}Deepsea.Challenge.2014.1080p.BrRip.DTS.x264_by [email protected]
Encoded date : UTC 2010-02-22 21:41:31
Writing application : mkvmerge v5.9.0 ( On The Loose ) built on Dec 9 2012 15:37:01
Writing library : libebml v1.3.0 + libmatroska v1.4.0

Video
ID : 1
Format : AVC
Format/Info : Advanced Video Codec
Format profile : [email protected]
Format settings, CABAC : Yes
Format settings, ReFrames : 4 frames
Codec ID : V_MPEG4/ISO/AVC
Duration : 1h 31mn
Bit rate : 4 777 Kbps
Width : 1 920 pixels
Height : 1 080 pixels
Display aspect ratio : 16:9
Frame rate mode : Constant
Frame rate : 23.976 fps
Color space : YUV
Chroma subsampling : 4:2:0
Bit depth : 8 bits
Scan type : Progressive
Bits/(Pixel*Frame) : 0.096
Stream size : 3.09 GiB (79%)
Title : {MINI Super-HQ}Deepsea.Challenge.2014.1080p.BrRip.DTS.x264_by [email protected]
Writing library : x264 core 130 r2273 b3065e6
Encoding settings : cabac=1 / ref=4 / deblock=1:0:0 / analyse=0x3:0x113 / me=umh / subme=11 / psy=1 / psy_rd=1.00:0.00 / mixed_ref=1 / me_range=48 / chroma_me=1 / trellis=2 / 8x8dct=1 / cqm=0 / deadzone=21,11 / fast_pskip=1 / chroma_qp_offset=-2 / threads=12 / lookahead_threads=1 / sliced_threads=0 / nr=0 / decimate=1 / interlaced=0 / bluray_compat=0 / constrained_intra=0 / bframes=4 / b_pyramid=2 / b_adapt=2 / b_bias=0 / direct=1 / weightb=1 / open_gop=0 / weightp=2 / keyint=240 / keyint_min=24 / scenecut=40 / intra_refresh=0 / rc_lookahead=40 / rc=2pass / mbtree=1 / bitrate=4777 / ratetol=1.0 / qcomp=0.60 / qpmin=0 / qpmax=69 / qpstep=4 / cplxblur=20.0 / qblur=0.5 / ip_ratio=1.40 / aq=1:1.00
Language : English
Default : Yes
Forced : No
Color primaries : BT.709
Transfer characteristics : BT.709
Matrix coefficients : BT.709

Audio #1
ID : 2
Format : AC-3
Format/Info : Audio Coding 3
Mode extension : CM (complete main)
Format settings, Endianness : Big
Codec ID : A_AC3
Duration : 1h 31mn
Bit rate mode : Constant
Bit rate : 448 Kbps
Channel(s) : 6 channels
Channel positions : Front: L C R, Side: L R, LFE
Sampling rate : 48.0 KHz
Bit depth : 16 bits
Compression mode : Lossy
Stream size : 292 MiB (7%)
Title : Thai DVD Master
Language : Thai
Default : Yes
Forced : Yes

Audio #2
ID : 3
Format : DTS
Format/Info : Digital Theater Systems
Mode : 16
Format settings, Endianness : Big
Codec ID : A_DTS
Duration : 1h 31mn
Bit rate mode : Constant
Bit rate : 755 Kbps
Channel(s) : 6 channels
Channel positions : Front: L C R, Side: L R, LFE
Sampling rate : 48.0 KHz
Bit depth : 24 bits
Compression mode : Lossy
Stream size : 492 MiB (12%)
Title : English DTS
Language : English
Default : No
Forced : No

Text #1
ID : 4
Format : VobSub
Codec ID : S_VOBSUB
Codec ID/Info : The same subtitle format used on DVDs
Title : Thai 480p From DVD Master
Language : Thai
Default : No
Forced : No

Text #2
ID : 5
Format : VobSub
Codec ID : S_VOBSUB
Codec ID/Info : The same subtitle format used on DVDs
Title : Thai 720p
Language : Thai
Default : No
Forced : No

Text #3
ID : 6
Format : VobSub
Codec ID : S_VOBSUB
Codec ID/Info : The same subtitle format used on DVDs
Title : Thai 1080p
Language : Thai
Default : No
Forced : No

Text #4
ID : 7
Format : VobSub
Codec ID : S_VOBSUB
Codec ID/Info : The same subtitle format used on DVDs
Title : Thai 1080p Yellow
Language : Thai
Default : No
Forced : No

Text #5
ID : 8
Format : VobSub
Codec ID : S_VOBSUB
Codec ID/Info : The same subtitle format used on DVDs
Title : Thai 1080p Low
Language : Thai
Default : Yes
Forced : Yes

Text #6
ID : 9
Format : VobSub
Codec ID : S_VOBSUB
Codec ID/Info : The same subtitle format used on DVDs
Title : Thai PGS BIG
Language : Thai
Default : No
Forced : No

Text #7
ID : 10
Format : PGS
Codec ID : S_HDMV/PGS
Codec ID/Info : The same subtitle format used on BDs/HD-DVDs
Title : Thai PGS
Language : Thai
Default : No
Forced : No

Text #8
ID : 11
Format : PGS
Codec ID : S_HDMV/PGS
Codec ID/Info : The same subtitle format used on BDs/HD-DVDs
Title : Thai PGS Yellow
Language : Thai
Default : No
Forced : No

Text #9
ID : 12
Format : PGS
Codec ID : S_HDMV/PGS
Codec ID/Info : The same subtitle format used on BDs/HD-DVDs
Title : Thai PGS Low
Language : Thai
Default : No
Forced : No

Text #10
ID : 13
Format : VobSub
Codec ID : S_VOBSUB
Codec ID/Info : The same subtitle format used on DVDs
Title : English
Language : English
Default : No
Forced : No

Menu
00:00:00.000 : en:Chapter 1
00:07:07.051 : en:Chapter 2
00:14:26.407 : en:Chapter 3
00:20:56.672 : en:Chapter 4
00:28:07.060 : en:Chapter 5
00:35:22.411 : en:Chapter 6
00:42:03.520 : en:Chapter 7
00:49:39.059 : en:Chapter 8
00:56:57.080 : en:Chapter 9
01:04:44.505 : en:Chapter 10
01:13:38.288 : en:Chapter 11
01:24:04.497 : en:Chapter 12




http://www.jenpic.com/images/2013/04/06/screensqlCSx.gif wrote:

SS แค๊ปจากตัวไฟล์ ค่ะ http://www.jenpic.com/images/2013/12/29/00-aHMy.gif
http://www.jenpic.com/images/2014/11/15/vlcsnap-2014-11-15-16h15m54s22QHqzn.png
http://www.jenpic.com/images/2014/11/15/vlcsnap-2014-11-15-16h18m19s17908QYO.png
http://www.jenpic.com/images/2014/11/15/vlcsnap-2014-11-15-16h17m32s244hyuT6.png
http://www.jenpic.com/images/2014/11/15/vlcsnap-2014-11-15-16h16m25s53GW6Qa.png

ส่งมอบ โดย : NongZEZA

https://www.duckload.us/forum/images/icons/icon4.png
http://www.mekafile.com/dl.php?f=Oya1e0aOQRNf

https://www.duckload.us/forum/images/icons/icon3.png
http://www.filecondo.com/dl.php?f=J41bc41xPQ2H

ajdach99
12-05-2014, 12:36 PM
ขอบคุณครับ