เรื่องย่อ
หลายพันปีหลังจากที่อารยธรรมถูกทำลายจากเหตุการณ์ที่ เกิดขึ้นในกลียุค มนุษย์ได้ปรับตัวและได้พัฒนาวิถีชีวิตใหม่ขึ้น ขณะนี้ เมืองเคลื่อนที่ขนาดใหญ่กำลังตระเวณท่องโลก และไล่ล่าเมืองที่เล็กกว่า ทอม นัทส์เวิร์ธธี (โรเบิร์ต ชีแฮน) ชายหนุ่มซึ่งมาจากระดับล่างของเมืองเคลื่อนที่ของลอน ดอน เขาพบว่าตัวเองกำลังต่อสู้เพื่ออยู่รอด หลังจากที่ได้เผชิญกับผู้ลี้ภัยสุดอันตราย เฮสเตอร์ ชอว์ (เฮรา ฮิลมาร์) ทั้งสองคนอยู่ต่างขั้วกัน มากันคนละเส้นทาง แต่กลายมาเป็นพันธมิตรกันได้อย่างไม่น่าเชื่อ และมีเป้าหมายที่จะเปลี่ยนอนาคต

General
Complete name : Mortal.Engines.2018.1080p.BluRay.x264.mkv
Format : Matroska
Format version : Version 4
File size : 9.16 GiB
Duration : 2 h 8 min
Overall bit rate : 10.2 Mb/s
Encoded date : UTC 2019-03-28 06:22:24
Writing application : mkvmerge v32.0.0 ('Astral Progressions') 64-bit
Writing library : libebml v1.3.7 + libmatroska v1.5.0

Video
ID : 1
Format : AVC
Format/Info : Advanced Video Codec
Format profile : [email protected]
Format settings : CABAC / 5 Ref Frames
Format settings, CABAC : Yes
Format settings, RefFrames : 5 frames
Codec ID : V_MPEG4/ISO/AVC
Duration : 2 h 8 min
Bit rate : 9 114 kb/s
Width : 1 920 pixels
Height : 808 pixels
Display aspect ratio : 2.40:1
Frame rate mode : Constant
Frame rate : 23.976 (24000/1001) FPS
Color space : YUV
Chroma subsampling : 4:2:0
Bit depth : 8 bits
Scan type : Progressive
Bits/(Pixel*Frame) : 0.245
Stream size : 8.17 GiB (89%)
Writing library : x264 core 157 r2935 545de2f
Language : English
Default : Yes
Forced : No

Audio 1
ID : 2
Format : AC-3
Format/Info : Audio Coding 3
Commercial name : Dolby Digital
Codec ID : A_AC3
Duration : 2 h 8 min
Bit rate mode : Constant
Bit rate : 448 kb/s
Channel(s) : 6 channels
Channel layout : L R C LFE Ls Rs
Sampling rate : 48.0 kHz
Frame rate : 31.250 FPS (1536 SPF)
Bit depth : 16 bits
Compression mode : Lossy
Stream size : 411 MiB (4%)
Language : English
Service kind : Complete Main
Default : Yes
Forced : No

Audio 2
ID : 3
Format : AC-3
Format/Info : Audio Coding 3
Commercial name : Dolby Digital
Codec ID : A_AC3
Duration : 2 h 8 min
Bit rate mode : Constant
Bit rate : 640 kb/s
Channel(s) : 6 channels
Channel layout : L R C LFE Ls Rs
Sampling rate : 48.0 kHz
Frame rate : 31.250 FPS (1536 SPF)
Bit depth : 16 bits
Compression mode : Lossy
Stream size : 588 MiB (6%)
Language : Thai
Service kind : Complete Main
Default : No
Forced : No

Text 1
ID : 4
Format : PGS
Muxing mode : zlib
Codec ID : S_HDMV/PGS
Codec ID/Info : Picture based subtitle format used on BDs/HD-DVDs
Duration : 1 h 57 min
Bit rate : 33.0 kb/s
Count of elements : 3004
Stream size : 27.8 MiB (0%)
Language : English
Default : Yes
Forced : No

Text 2
ID : 5
Format : PGS
Muxing mode : zlib
Codec ID : S_HDMV/PGS
Codec ID/Info : Picture based subtitle format used on BDs/HD-DVDs
Duration : 2 h 7 min
Bit rate : 19.8 kb/s
Count of elements : 2166
Stream size : 18.1 MiB (0%)
Language : Thai
Default : No
Forced : No

Menu
00:00:00.000 : en:00:00:00.000
00:09:24.397 : en:00:09:24.397
00:16:13.306 : en:00:16:13.306
00:24:20.626 : en:00:24:20.626
00:31:24.591 : en:00:31:24.591
00:35:53.068 : en:00:35:53.068
00:41:27.819 : en:00:41:27.819
00:44:53.816 : en:00:44:53.816
00:50:16.805 : en:00:50:16.805
00:54:21.175 : en:00:54:21.175
01:00:51.398 : en:01:00:51.398
01:07:12.070 : en:01:07:12.070
01:11:12.852 : en:01:11:12.852
01:17:37.736 : en:01:17:37.736
01:25:25.620 : en:01:25:25.620
01:33:30.396 : en:01:33:30.396
01:39:28.546 : en:01:39:28.546
01:47:58.263 : en:01:47:58.263
01:52:11.558 : en:01:52:11.558
01:58:33.523 : en:01:58:33.523






Download: cornfile
http://cornfile.com/2ftczk7vpx4h
Download: mekafile
http://www.mekafile.com/dl.php?f=iSa9c7bS4eTg