+ Reply to Thread
Results 1 to 5 of 5
  1. #1
    Administrators Duckload.us's Avatar
    Join Date
    Dec 2010
    Posts
    106,250
    Thanks
    9
    Thanked 110,187 Times in 51,466 Posts

    Exclamation [จีน]-[โจวซิงฉือ เสียงพากย์พันธมิตร] Out of The Dark (1995) กึ๋ยเฉพาะชั้น 9 [1080p.WEB-DL] [พากย์ไทย 5.1 ซับไทย PGS คมชัด]



    http://www.imdb.com/title/tt0113356/
    Ratings: 7/10 from 1,096 use

    หลังจากเสียชีวิตด้วยอุบัติเหตุ แม่เฒ่าหลี่กลับมาในคืนเรียกวิญญาณตามตำนาานสร้างควา มวุ่นวายให้หัวหน้า หน่วยรักษาความปลอดภัยลัวะเซี่ยงและคนอื่นๆ หมอผีลีอองรู้มาว่าลูกชายของแม่เฒ่าหลี่และภรรยาเป็ฆ าตกร เขาสัญญาที่จะจับตัวทั้งคู่เพื่อให้ดวง วิญญาณแม่เฒ่าหลี่ไปสู่สุคติ แต่ว่าลูกชายของหล่อนได้ตายในขณะที่กำลังฆ่าลีออง และลัวเชียงภรรยาของเขาฆ่าตัวตายตามและสาบานว่าจะกลั บมาในคืนเรียกวิญญาณ

    Format : Matroska
    Format version : Version 2
    File size : 3.28 GiB
    Duration : 1h 19mn
    Overall bit rate : 5 901 Kbps
    Movie name : Out.of.The.Dark.1995.1080p.AC3.WEB-DL.H.264-joythun
    Encoded date : UTC 2016-03-23 14:56:43
    Writing application : mkvmerge v5.0.1 ( Es ist Sommer ) built on Oct 9 2011 11:55:43
    Writing library : libebml v1.2.2 + libmatroska v1.3.0

    Video
    ID : 1
    Format : AVC
    Format/Info : Advanced Video Codec
    Format profile : [email protected]
    Format settings, CABAC : Yes
    Format settings, ReFrames : 4 frames
    Muxing mode : Header stripping
    Codec ID : V_MPEG4/ISO/AVC
    Duration : 1h 19mn
    Width : 1 912 pixels
    Height : 1 020 pixels
    Display aspect ratio : 1.875
    Frame rate : 25.000 fps
    Color space : YUV
    Chroma subsampling : 4:2:0
    Bit depth : 8 bits
    Scan type : Progressive
    Title : Out.of.The.Dark.1995.1080p.AC3.WEB-DL.H.264-joythun
    Language : Chinese
    Default : Yes
    Forced : No
    Color primaries : BT.709-5, BT.1361, IEC 61966-2-4, SMPTE RP177
    Transfer characteristics : BT.709-5, BT.1361
    Matrix coefficients : BT.709-5, BT.1361, IEC 61966-2-4 709, SMPTE RP177

    Audio #1
    ID : 2
    Format : AC-3
    Format/Info : Audio Coding 3
    Mode extension : CM (complete main)
    Muxing mode : Header stripping
    Codec ID : A_AC3
    Duration : 1h 19mn
    Bit rate mode : Constant
    Bit rate : 384 Kbps
    Channel(s) : 6 channels
    Channel positions : Front: L C R, Side: L R, LFE
    Sampling rate : 48.0 KHz
    Bit depth : 16 bits
    Compression mode : Lossy
    Delay relative to video : 12s 0ms
    Stream size : 218 MiB (7%)
    Title : THAI Master 5.1 @ 384 Kbps
    Language : Thai
    Default : Yes
    Forced : Yes

    Audio #2
    ID : 3
    Format : AAC
    Format/Info : Advanced Audio Codec
    Format profile : LC
    Codec ID : A_AAC
    Duration : 1h 19mn
    Channel(s) : 2 channels
    Channel positions : Front: L R
    Sampling rate : 48.0 KHz
    Compression mode : Lossy
    Title : Cantonese AAC 2.0
    Language : Chinese
    Default : No
    Forced : No

    Audio #3
    ID : 4
    Format : AC-3
    Format/Info : Audio Coding 3
    Mode extension : CM (complete main)
    Muxing mode : Header stripping
    Codec ID : A_AC3
    Duration : 1h 19mn
    Bit rate mode : Constant
    Bit rate : 192 Kbps
    Channel(s) : 2 channels
    Channel positions : Front: L R
    Sampling rate : 48.0 KHz
    Bit depth : 16 bits
    Compression mode : Lossy
    Delay relative to video : 12s 0ms
    Stream size : 109 MiB (3%)
    Title : Mandarin AC3 2.0 @ 192 Kbps
    Language : Chinese
    Default : No
    Forced : No

    Text #1
    ID : 5
    Format : VobSub
    Muxing mode : zlib
    Codec ID : S_VOBSUB
    Codec ID/Info : The same subtitle format used on DVDs
    Title : THAI 480p DVD Master
    Language : Thai
    Default : No
    Forced : No

    Text #2
    ID : 6
    Format : VobSub
    Muxing mode : zlib
    Codec ID : S_VOBSUB
    Codec ID/Info : The same subtitle format used on DVDs
    Title : THAI 1080p
    Language : Thai
    Default : Yes
    Forced : Yes

    Text #3
    ID : 7
    Format : VobSub
    Muxing mode : zlib
    Codec ID : S_VOBSUB
    Codec ID/Info : The same subtitle format used on DVDs
    Title : THAI 1080p Yellow
    Language : Thai
    Default : No
    Forced : No

    Text #4
    ID : 8
    Format : VobSub
    Muxing mode : zlib
    Codec ID : S_VOBSUB
    Codec ID/Info : The same subtitle format used on DVDs
    Title : THAI 1080p Out
    Language : Thai
    Default : No
    Forced : No

    Text #5
    ID : 9
    Format : PGS
    Muxing mode : zlib
    Codec ID : S_HDMV/PGS
    Codec ID/Info : The same subtitle format used on BDs/HD-DVDs
    Title : THAI PGS 1080p
    Language : Thai
    Default : No
    Forced : No

    Text #6
    ID : 10
    Format : PGS
    Muxing mode : zlib
    Codec ID : S_HDMV/PGS
    Codec ID/Info : The same subtitle format used on BDs/HD-DVDs
    Title : THAI PGS 1080p Out
    Language : Thai
    Default : No
    Forced : No

    Text #7
    ID : 11
    Format : UTF-8
    Codec ID : S_TEXT/UTF8
    Codec ID/Info : UTF-8 Plain Text
    Title : ENG SRT
    Language : English
    Default : No
    Forced : No

    Menu #1
    00:00:00.000 : en:1
    00:06:26.000 : en:2
    00:10:00.000 : en:3
    00:18:26.000 : en:4
    00:26:22.000 : en:5
    00:33:25.000 : en:6
    00:38:45.000 : en:7
    00:46:21.000 : en:8
    00:51:17.000 : en:9
    00:56:48.000 : en:10
    01:05:16.000 : en:11
    01:11:19.000 : en:12

    Menu #2
    00:00:00.000 : en:1
    00:06:26.000 : en:2
    00:10:00.000 : en:3
    00:18:26.000 : en:4
    00:26:22.000 : en:5
    00:33:25.000 : en:6
    00:38:45.000 : en:7
    00:46:21.000 : en:8
    00:51:17.000 : en:9
    00:56:48.000 : en:10
    01:05:16.000 : en:11
    01:11:19.000 : en:12








    Quote:
    พากย์ไทย 5.1 ซับไทย PGS คมชัดจาก DVD มาสเตอร์


    http://www.mekafile.com/dl.php?f=rC0960b9ccJS

  2. The Following 4 Users Say Thank You to Duckload.us For This Useful Post:

    kit79 (10-12-2016), roc_dave (04-06-2019), Visit (06-14-2016), Wesker_TOT (09-08-2016)

  3. #2
    Senior Member
    Join Date
    Sep 2014
    Posts
    2,885
    Thanks
    2
    Thanked 0 Times in 0 Posts
    Thanks a bunch.

  4. #3
    Senior Member
    Join Date
    Jul 2012
    Posts
    6,162
    Thanks
    0
    Thanked 0 Times in 0 Posts
    ขอบคุณมากจ้า

  5. #4
    Senior Member
    Join Date
    Dec 2013
    Posts
    1,759
    Thanks
    3,711
    Thanked 0 Times in 0 Posts
    ขอบคุณนะครับ...

  6. #5
    Senior Member
    Join Date
    Sep 2013
    Posts
    1,220
    Thanks
    0
    Thanked 1 Time in 1 Post
    ขอบคุณมากๆเลยครับผม

+ Reply to Thread

Thread Information

Users Browsing this Thread

There are currently 1 users browsing this thread. (0 members and 1 guests)

     

Posting Permissions

  • You may not post new threads
  • You may not post replies
  • You may not post attachments
  • You may not edit your posts