+ Reply to Thread
Results 1 to 4 of 4
  1. #1
    Administrators Duckload.us's Avatar
    Join Date
    Dec 2010
    Posts
    101,056
    Thanks
    9
    Thanked 102,610 Times in 49,069 Posts

    Exclamation [จีน]-[Super HQ โจวซิงฉือ เสียงพากย์อินทรีย์] A Chinese Odyssey Part Two: Cinderella (1994) ไซอิ๋วกี่ เดี๋ยวลิงเดี๋ยวคน ภาค 2 [1080p.DTS] [พากย์ไทย 5.1 ซับไทย PGS คมชัด]



    http://www.imdb.com/title/tt0114996/
    Ratings: 8.1/10 from 4,064 use

    จากภาคที่แล้วยังซนไม่เลิก เห้งเจีย (โจวซิงฉือ) พลัดหลงไปเมื่อ 500 ปีก่อน แล้วได้พบกับสาวน้อย "จื่อเสีย" ผู้เสี่ยงรักด้วยการดึงดาบออกจากฝัก ใครทำได้คนนั้นคือคู่ครองของเธอได้ขโมยกล่องแพนโดร่า เพื่อต่อรองให้เห้งเจีย ทดลองดึงดาบก็สำเร็จ เธอจึงตัดสินใจเลือกเห้งเจียเป็นคู่ครอง โดยได้ติดตามไปไหนต่อไหนจนได้พบกับ "ตือโป้ยก่าย", "ซัวเจ๋ง" ทั้งคู่ติดตามมาเพื่อเอาของให้เห้งเจียไปช่วยอาจารย์ "พระถังซำจั๋ง" แต่ก็ยังไม่ถูกลดละจากการตามล่าของปีศาจวัวกระทิง มันประกาศเอาจื่อเสียเป็นเมียน้อยและรับเห้งเจีย เป็นลูกเขยหลังจากที่ได้ช่วยให้พ้นเงื้อมมือปีศาจแมง มุม เรื่องราววุ่นวายไล่ล่าไม่รู้จักจบสิ้น สร้างเสียงฮือฮาที่ไม่หยุดยั้ง จนเห้งเจียปลงเสียแล้วว่า "โลกใบนี้ไม่มีสิ่งแน่นอน โดยเฉพาะเรื่องของความรัก ยิ่งรักมากยิ่งทุกข์มาก" จึงตกลงที่จะเดินทางตามอาจารย์ไปสร้างตำนานพระไตรปิฎ กที่ชมพูทวีป โดยยอมรับอาวุธและกระบองทองกลับมาเป็น"พญาลิงเห้งเจี ย" อีกครั้งให้เหล่าปีศาจได้หวาดกลัว

    Encoded date : UTC 2016-06-04 15:17:28
    Writing application : mkvmerge v5.0.1 ( Es ist Sommer ) built on Oct 9 2011 11:55:43
    Writing library : libebml v1.2.2 + libmatroska v1.3.0

    Video
    ID : 1
    Format : AVC
    Format/Info : Advanced Video Codec
    Format profile : [email protected]
    Format settings, CABAC : Yes
    Format settings, ReFrames : 4 frames
    Muxing mode : Header stripping
    Codec ID : V_MPEG4/ISO/AVC
    Duration : 1h 39mn
    Bit rate : 13.1 Mbps
    Width : 1 920 pixels
    Height : 1 080 pixels
    Display aspect ratio : 16:9
    Frame rate : 24.000 fps
    Color space : YUV
    Chroma subsampling : 4:2:0
    Bit depth : 8 bits
    Scan type : Progressive
    Bits/(Pixel*Frame) : 0.263
    Stream size : 9.57 GiB (86%)
    Title : A.Chinese.Odyssey.Part.II.Cinderella.1994.1080p.DT S.BluRay.x264-joythun
    Writing library : x264 core 136 r2348+704+51 d1baef6 tMod [[email protected]:2:0 X86_64]
    Encoding settings : cabac=1 / ref=4 / deblock=1:-3:-3 / analyse=0x3:0x113 / me=umh / subme=11 / psy=1 / fade_compensate=0.00 / psy_rd=1.00:0.00 / mixed_ref=1 / me_range=32 / chroma_me=1 / trellis=2 / 8x8dct=1 / cqm=0 / deadzone=21,11 / fast_pskip=0 / chroma_qp_offset=-2 / threads=12 / lookahead_threads=2 / sliced_threads=0 / nr=0 / decimate=0 / interlaced=0 / bluray_compat=0 / constrained_intra=0 / fgo=0 / bframes=8 / b_pyramid=2 / b_adapt=2 / b_bias=0 / direct=3 / weightb=1 / open_gop=0 / weightp=2 / keyint=240 / keyint_min=24 / scenecut=40 / intra_refresh=0 / rc_lookahead=240 / rc=2pass / mbtree=1 / bitrate=13070 / ratetol=1.0 / qcomp=0.70 / qpmin=0:0:0 / qpmax=69:69:69 / qpstep=4 / cplxblur=20.0 / qblur=0.5 / ip_ratio=1.10 / aq=4:0.85 / aq-sensitivity=10.00 / aq-factor=1.00:1.00:1.00 / aq2=0 / aq3=0
    Language : Chinese
    Default : Yes
    Forced : No

    Audio #1
    ID : 2
    Format : AC-3
    Format/Info : Audio Coding 3
    Mode extension : CM (complete main)
    Muxing mode : Header stripping
    Codec ID : A_AC3
    Duration : 1h 39mn
    Bit rate mode : Constant
    Bit rate : 384 Kbps
    Channel(s) : 6 channels
    Channel positions : Front: L C R, Side: L R, LFE
    Sampling rate : 48.0 KHz
    Bit depth : 16 bits
    Compression mode : Lossy
    Stream size : 274 MiB (2%)
    Title : THAI Master 5.1 @ 384 Kbps
    Language : Thai
    Default : Yes
    Forced : Yes

    Audio #2
    ID : 3
    Format : DTS
    Format/Info : Digital Theater Systems
    Format profile : MA / Core
    Muxing mode : Header stripping
    Codec ID : A_DTS
    Duration : 1h 39mn
    Bit rate mode : Variable
    Bit rate : 1 510 Kbps
    Channel(s) : 7 channels / 6 channels
    Channel positions : Front: L C R, Side: L R, Back: C, LFE / Front: L C R, Side: L R, LFE
    Sampling rate : 48.0 KHz
    Bit depth : 16 bits
    Compression mode : Lossless / Lossy
    Stream size : 1.05 GiB (9%)
    Title : CHI DTS 5.1 @ 1510 Kbps
    Language : Chinese
    Default : No
    Forced : No

    Text #1
    ID : 4
    Format : VobSub
    Muxing mode : zlib
    Codec ID : S_VOBSUB
    Codec ID/Info : The same subtitle format used on DVDs
    Title : THAI 480p DVD Master
    Language : Thai
    Default : No
    Forced : No

    Text #2
    ID : 5
    Format : VobSub
    Muxing mode : zlib
    Codec ID : S_VOBSUB
    Codec ID/Info : The same subtitle format used on DVDs
    Title : THAI 1080p
    Language : Thai
    Default : Yes
    Forced : Yes

    Text #3
    ID : 6
    Format : VobSub
    Muxing mode : zlib
    Codec ID : S_VOBSUB
    Codec ID/Info : The same subtitle format used on DVDs
    Title : THAI 1080p Yellow
    Language : Thai
    Default : No
    Forced : No

    Text #4
    ID : 7
    Format : VobSub
    Muxing mode : zlib
    Codec ID : S_VOBSUB
    Codec ID/Info : The same subtitle format used on DVDs
    Title : THAI 1080p Out
    Language : Thai
    Default : No
    Forced : No

    Text #5
    ID : 8
    Format : PGS
    Muxing mode : zlib
    Codec ID : S_HDMV/PGS
    Codec ID/Info : The same subtitle format used on BDs/HD-DVDs
    Title : THAI PGS 1080p
    Language : Thai
    Default : No
    Forced : No

    Text #6
    ID : 9
    Format : PGS
    Muxing mode : zlib
    Codec ID : S_HDMV/PGS
    Codec ID/Info : The same subtitle format used on BDs/HD-DVDs
    Title : THAI PGS 1080p Out
    Language : Thai
    Default : No
    Forced : No

    Text #7
    ID : 10
    Format : PGS
    Muxing mode : zlib
    Codec ID : S_HDMV/PGS
    Codec ID/Info : The same subtitle format used on BDs/HD-DVDs
    Title : ENG PGS 1080p
    Language : English
    Default : No
    Forced : No







    Quote:
    พากย์ไทย 5.1 ซับไทย PGS คมชัดจาก DVD มาสเตอร์


    http://www.mekafile.com/dl.php?f=dl4a84bc6k5b

  2. #2
    Senior Member
    Join Date
    Jul 2012
    Posts
    5,928
    Thanks
    0
    Thanked 0 Times in 0 Posts
    ขอบคุณมากจ้า

  3. #3
    Member
    Join Date
    Nov 2016
    Posts
    83
    Thanks
    0
    Thanked 0 Times in 0 Posts
    ช่วยอัพลง Cornfile ให้ทีครับ ขอบคุณมากครับ

  4. #4
    Senior Member
    Join Date
    Dec 2011
    Posts
    2,076
    Thanks
    0
    Thanked 0 Times in 0 Posts
    ขอบคุณนะคะ

+ Reply to Thread

Thread Information

Users Browsing this Thread

There are currently 1 users browsing this thread. (0 members and 1 guests)

     

Posting Permissions

  • You may not post new threads
  • You may not post replies
  • You may not post attachments
  • You may not edit your posts