+ Reply to Thread
Results 1 to 4 of 4
  1. #1
    Administrators Duckload.us's Avatar
    Join Date
    Dec 2010
    Posts
    104,571
    Thanks
    9
    Thanked 107,766 Times in 50,810 Posts

    Exclamation [อินเดีย] [จัดให้นักสะสม] Dabangg 2 (2012) มือปราบกำราบเซียน 2 [1080p.DTS] [พากย์ไทย 5.1 ซับไทย PGS คมชัด]



    http://www.imdb.com/title/tt2112131/
    Ratings: 5/10 from 10,226 use


    ภาคต่อสุดมันส์ด้วยวีรกรรมสุดแซบของ ชุลบุล "โรบินฮู้ด" (ซัลมาน ข่าน) ผู้โจษจันด้วยบุคลิกขวานผ่าซากปากคอเราะร้ายปานตะไกร คมกริบ เรื่องราวของภาคนี้ขุลบุลกับภรรยา สัชโช (โสนัคษี สินหา) ย้ายถิ่นฐานจากตำแหน่งเดิมคือสารวัตรภูธรในเมืองสัสจ าน มาเป็นสารวัตรใหญ่แห่งกาจารียา สน.กานปุระ เมืองที่ใหญ่และมีชื่อที่สุดในอุตรประเทศ แต่เมื่อมาถึงเมืองชุลบุลก็เปิดศึกกับพัคชา (ประกาศ ราช) แบบทันทีทันใด หากภาคแรกมันส์สนั่นเพียงไร ภาค 2 ก็ยิ่งยกระดับความมันส์ด้วยคิวบู๊สุดเทพ รับประกันว่า Dabangg 2 จะจัดเต็มความสนุกถึงพริกถึงขิง

    Format : Matroska
    Format version : Version 2
    File size : 8.30 GiB
    Duration : 2h 1mn
    Overall bit rate : 9 765 Kbps
    Movie name : Dabangg.2.2012.1080p.DTS.BluRay.x264-joythun
    Encoded date : UTC 2016-07-25 18:33:43
    Writing application : mkvmerge v5.0.1 ( Es ist Sommer ) built on Oct 9 2011 11:55:43
    Writing library : libebml v1.2.2 + libmatroska v1.3.0

    Video
    ID : 1
    Format : AVC
    Format/Info : Advanced Video Codec
    Format profile : [email protected]
    Format settings, CABAC : Yes
    Format settings, ReFrames : 4 frames
    Codec ID : V_MPEG4/ISO/AVC
    Duration : 2h 1mn
    Bit rate : 7 677 Kbps
    Width : 1 920 pixels
    Height : 816 pixels
    Display aspect ratio : 2.35:1
    Frame rate : 24.000 fps
    Color space : YUV
    Chroma subsampling : 4:2:0
    Bit depth : 8 bits
    Scan type : Progressive
    Bits/(Pixel*Frame) : 0.204
    Stream size : 6.52 GiB (79%)
    Title : Dabangg.2.2012.1080p.DTS.BluRay.x264-joythun
    Language : Hindi
    Default : Yes
    Forced : No

    Audio #1
    ID : 2
    Format : AC-3
    Format/Info : Audio Coding 3
    Mode extension : CM (complete main)
    Codec ID : A_AC3
    Duration : 2h 1mn
    Bit rate mode : Constant
    Bit rate : 384 Kbps
    Channel(s) : 6 channels
    Channel positions : Front: L C R, Side: L R, LFE
    Sampling rate : 48.0 KHz
    Bit depth : 16 bits
    Compression mode : Lossy
    Delay relative to video : 22ms
    Stream size : 334 MiB (4%)
    Title : THAI Master 5.1 @ 384 Kbps
    Language : Thai
    Default : Yes
    Forced : Yes

    Audio #2
    ID : 3
    Format : DTS
    Format/Info : Digital Theater Systems
    Codec ID : A_DTS
    Duration : 2h 1mn
    Bit rate mode : Constant
    Bit rate : 1 510 Kbps
    Channel(s) : 6 channels
    Channel positions : Front: L C R, Side: L R, LFE
    Sampling rate : 48.0 KHz
    Bit depth : 24 bits
    Compression mode : Lossy
    Delay relative to video : 6ms
    Stream size : 1.28 GiB (15%)
    Title : HINDI DTS 5.1 @ 1510 Kbps
    Language : Hindi
    Default : No
    Forced : No

    Text #1
    ID : 4
    Format : VobSub
    Codec ID : S_VOBSUB
    Codec ID/Info : The same subtitle format used on DVDs
    Title : THAI 480p DVD Master
    Language : Thai
    Default : No
    Forced : No

    Text #2
    ID : 5
    Format : VobSub
    Codec ID : S_VOBSUB
    Codec ID/Info : The same subtitle format used on DVDs
    Title : THAI 1080p
    Language : Thai
    Default : Yes
    Forced : Yes

    Text #3
    ID : 6
    Format : VobSub
    Codec ID : S_VOBSUB
    Codec ID/Info : The same subtitle format used on DVDs
    Title : THAI 1080p Yellow
    Language : Thai
    Default : No
    Forced : No

    Text #4
    ID : 7
    Format : VobSub
    Codec ID : S_VOBSUB
    Codec ID/Info : The same subtitle format used on DVDs
    Title : THAI 1080p Out
    Language : Thai
    Default : No
    Forced : No

    Text #5
    ID : 8
    Format : PGS
    Codec ID : S_HDMV/PGS
    Codec ID/Info : The same subtitle format used on BDs/HD-DVDs
    Title : THAI PGS 1080p
    Language : Thai
    Default : No
    Forced : No

    Text #6
    ID : 9
    Format : PGS
    Codec ID : S_HDMV/PGS
    Codec ID/Info : The same subtitle format used on BDs/HD-DVDs
    Title : THAI PGS 1080p Out
    Language : Thai
    Default : No
    Forced : No

    Text #7
    ID : 10
    Format : UTF-8
    Codec ID : S_TEXT/UTF8
    Codec ID/Info : UTF-8 Plain Text
    Title : ENG SRT
    Language : English
    Default : No
    Forced : No









    Quote:
    พากย์ไทย 5.1 ซับไทย PGS คมชัดจาก DVD มาสเตอร์


    http://www.mekafile.com/dl.php?f=vV6dd1beeXCw

  2. The Following User Says Thank You to Duckload.us For This Useful Post:

    Visit (07-29-2016)

  3. #2
    Junior Member
    Join Date
    Dec 2013
    Posts
    22
    Thanks
    29
    Thanked 0 Times in 0 Posts
    ขอบคุณคับ.....เอาอีกๆๆๆๆ มีแนวแบบฟีลกูดมั้ยคับ....

  4. #3
    Junior Member
    Join Date
    Aug 2012
    Posts
    3
    Thanks
    0
    Thanked 0 Times in 0 Posts
    มี ภาค 1กับ 3 ไหมครับ

  5. #4
    Member
    Join Date
    Apr 2016
    Posts
    38
    Thanks
    7
    Thanked 0 Times in 0 Posts
    ขอ..Dabangg 2 (2012) มือปราบกำราบเซียน 2 cornfile หน่อยครับ

+ Reply to Thread

Thread Information

Users Browsing this Thread

There are currently 1 users browsing this thread. (0 members and 1 guests)

     

Posting Permissions

  • You may not post new threads
  • You may not post replies
  • You may not post attachments
  • You may not edit your posts