+ Reply to Thread
Results 1 to 3 of 3
  1. #1
    Administrators Duckload.us's Avatar
    Join Date
    Dec 2010
    Posts
    107,974
    Thanks
    7
    Thanked 112,845 Times in 52,170 Posts

    Exclamation [ฝรั่ง]-Executive Decision (1996) ยุทธการดับฟ้า -Blu-ray.DTS.1080p. [Modified]-[พากย์ไทย 5.1 + อังกฤษ DTS] [บรรยายไทย PGS + อังกฤษ] เสียง,ซับความคมชัดสูง From DVD Master




    นาจี ฮัสชัน (David Suchet) ผู้ก่อการร้ายที่ยึดเครื่องบินลำหนึ่ง จุดประสงค์ก็คือเพื่อต่อรองให้ปล่อยตัวผู้นำของเขาออ กมา ไม่อย่างนั้น เขาจะทิ้งระเบิดที่บรรจุยาพิษร้ายแรงที่สามารถฆ่าคนไ ด้ทั้งเมือง ทางการจึงส่งทีมลับไปจัดการต่อกรกับพวกมันบนเครื่องบ ิน นำโดย ดร.เดวิด แกรนท์ (Kurt Russell) และ ผู้กองออสติน เทรวิส (Steven Seagal) แผนดับฟ้า เริ่มขึ้นแล้ว


    General
    Executive.Decision.1996.1080p.DTS.BluRay.H264.mkv
    Format : Matroska
    Format version : Version 4 / Version 2
    File size : 4.18 GiB
    Duration : 2h 12mn
    Overall bit rate : 4 507 Kbps
    Encoded date : UTC 2016-08-04 04:58:44
    Writing application : mkvmerge v8.3.0 ( Over the Horizon ) 32bit
    Writing library : libebml v1.3.1 + libmatroska v1.4.2

    Video
    ID : 1
    Format : AVC
    Format/Info : Advanced Video Codec
    Format profile : [email protected]
    Format settings, CABAC : Yes
    Format settings, ReFrames : 4 frames
    Codec ID : V_MPEG4/ISO/AVC
    Duration : 2h 12mn
    Bit rate : 2 500 Kbps
    Width : 1 920 pixels
    Height : 800 pixels
    Display aspect ratio : 2.40:1
    Frame rate mode : Constant
    Frame rate : 23.976 (23976/1000) fps
    Color space : YUV
    Chroma subsampling : 4:2:0
    Bit depth : 8 bits
    Scan type : Progressive
    Bits/(Pixel*Frame) : 0.068
    Stream size : 2.32 GiB (55%)
    Writing library : x264 core 148 r2638M 7599210
    Encoding settings : cabac=1 / ref=4 / deblock=1:-1:-1 / analyse=0x3:0x113 / me=umh / subme=9 / psy=1 / psy_rd=1.00:0.15 / mixed_ref=1 / me_range=24 / chroma_me=1 / trellis=2 / 8x8dct=1 / cqm=0 / deadzone=21,11 / fast_pskip=1 / chroma_qp_offset=-3 / threads=32 / lookahead_threads=4 / sliced_threads=0 / nr=0 / decimate=1 / interlaced=0 / bluray_compat=0 / constrained_intra=0 / bframes=3 / b_pyramid=2 / b_adapt=2 / b_bias=0 / direct=3 / weightb=1 / open_gop=0 / weightp=2 / keyint=250 / keyint_min=25 / scenecut=40 / intra_refresh=0 / rc_lookahead=50 / rc=2pass / mbtree=1 / bitrate=2500 / ratetol=1.0 / qcomp=0.60 / qpmin=0 / qpmax=69 / qpstep=4 / cplxblur=20.0 / qblur=0.5 / vbv_maxrate=31250 / vbv_bufsize=31250 / nal_hrd=none / filler=0 / ip_ratio=1.40 / aq=3:1.00
    Default : Yes
    Forced : No

    Audio #1
    ID : 2
    Format : AC-3
    Format/Info : Audio Coding 3
    Mode extension : CM (complete main)
    Format settings, Endianness : Big
    Codec ID : A_AC3
    Duration : 2h 12mn
    Bit rate mode : Constant
    Bit rate : 448 Kbps
    Channel(s) : 6 channels
    Channel positions : Front: L C R, Side: L R, LFE
    Sampling rate : 48.0 KHz
    Frame rate : 31.250 fps (1536 spf)
    Compression mode : Lossy
    Stream size : 425 MiB (10%)
    Language : Thai
    Default : Yes
    Forced : No

    Audio #2
    ID : 3
    Format : DTS
    Format/Info : Digital Theater Systems
    Mode : 16
    Format settings, Endianness : Big
    Codec ID : A_DTS
    Duration : 2h 12mn
    Bit rate mode : Constant
    Bit rate : 1 509 Kbps
    Channel(s) : 6 channels
    Channel positions : Front: L C R, Side: L R, LFE
    Sampling rate : 48.0 KHz
    Frame rate : 93.750 fps (512 spf)
    Bit depth : 24 bits
    Compression mode : Lossy
    Stream size : 1.40 GiB (33%)
    Language : English
    Default : No
    Forced : No

    Text #1
    ID : 4
    Format : VobSub
    Muxing mode : zlib
    Codec ID : S_VOBSUB
    Codec ID/Info : Picture based subtitle format used on DVDs
    Duration : 2h 6mn
    Bit rate : 1 343 bps
    Count of elements : 1416
    Stream size : 1.22 MiB (0%)
    Title : 480p
    Language : Thai
    Default : No
    Forced : No

    Text #2
    ID : 5
    Format : VobSub
    Muxing mode : zlib
    Codec ID : S_VOBSUB
    Codec ID/Info : Picture based subtitle format used on DVDs
    Duration : 2h 6mn
    Bit rate : 2 443 bps
    Count of elements : 1416
    Stream size : 2.22 MiB (0%)
    Title : 720p
    Language : Thai
    Default : No
    Forced : No

    Text #3
    ID : 6
    Format : VobSub
    Muxing mode : zlib
    Codec ID : S_VOBSUB
    Codec ID/Info : Picture based subtitle format used on DVDs
    Duration : 2h 6mn
    Bit rate : 4 058 bps
    Count of elements : 1416
    Stream size : 3.68 MiB (0%)
    Title : 1080p
    Language : Thai
    Default : Yes
    Forced : No

    Text #4
    ID : 7
    Format : VobSub
    Muxing mode : zlib
    Codec ID : S_VOBSUB
    Codec ID/Info : Picture based subtitle format used on DVDs
    Duration : 2h 6mn
    Bit rate : 4 061 bps
    Count of elements : 1416
    Stream size : 3.69 MiB (0%)
    Title : 1080p
    Language : Thai
    Default : No
    Forced : No

    Text #5
    ID : 8
    Format : VobSub
    Muxing mode : zlib
    Codec ID : S_VOBSUB
    Codec ID/Info : Picture based subtitle format used on DVDs
    Duration : 2h 6mn
    Bit rate : 4 415 bps
    Count of elements : 1416
    Stream size : 4.01 MiB (0%)
    Title : 1080p
    Language : Thai
    Default : No
    Forced : No

    Text #6
    ID : 9
    Format : PGS
    Muxing mode : zlib
    Codec ID : S_HDMV/PGS
    Codec ID/Info : Picture based subtitle format used on BDs/HD-DVDs
    Duration : 2h 6mn
    Bit rate : 17.6 Kbps
    Count of elements : 2832
    Stream size : 16.0 MiB (0%)
    Title : Angsana
    Language : Thai
    Default : No
    Forced : No

    Text #7
    ID : 10
    Format : PGS
    Muxing mode : zlib
    Codec ID : S_HDMV/PGS
    Codec ID/Info : Picture based subtitle format used on BDs/HD-DVDs
    Duration : 2h 6mn
    Bit rate : 16.4 Kbps
    Count of elements : 2832
    Stream size : 14.9 MiB (0%)
    Title : Tahoma
    Language : Thai
    Default : No
    Forced : No

    Text #8
    ID : 11
    Format : UTF-8
    Codec ID : S_TEXT/UTF8
    Codec ID/Info : UTF-8 Plain Text
    Duration : 2h 10mn
    Bit rate : 42 bps
    Count of elements : 1468
    Stream size : 41.1 KiB (0%)
    Title : SRT
    Language : English
    Default : No
    Forced : No












    http://www.mekafile.com/dl.php?f=XN41a2beBqc6

  2. #2
    Senior Member
    Join Date
    Sep 2013
    Posts
    1,221
    Thanks
    0
    Thanked 1 Time in 1 Post
    ขอบคุณมากๆครับ

  3. #3
    Senior Member
    Join Date
    Jun 2014
    Posts
    1,204
    Thanks
    0
    Thanked 0 Times in 0 Posts
    ขอบคุณครับ

+ Reply to Thread

Thread Information

Users Browsing this Thread

There are currently 1 users browsing this thread. (0 members and 1 guests)

     

Posting Permissions

  • You may not post new threads
  • You may not post replies
  • You may not post attachments
  • You may not edit your posts