+ Reply to Thread
Results 1 to 2 of 2
  1. #1
    Administrators Duckload.us's Avatar
    Join Date
    Dec 2010
    Posts
    94,270
    Thanks
    9
    Thanked 96,684 Times in 46,513 Posts

    Exclamation [ฝรั่ง]-[คมชัด x265 HEVC] Bad Neighbors 2 Sorotity Rising 2016 8bit BluRay 1080p x265 HQ HEVC AC3 5.1 -Encode [พากย์ไทย 5.1 + อังกฤษ 5.1] [ซับไทย + อังกฤษ]




    - Info คลิก -


    แมค (โรเกน) และ เคลลี่ แรดเนอร์ (เบิร์น) กำลังจะมีลูกคนที่ 2 จึงตัดสินใจขายบ้านและเตรียมจะย้ายไปอยู่ชานเมือง พวกเขาเกือบจะขายบ้านได้แล้ว แต่ความซวยมาเยือนซะก่อน เมื่อบ้านข้าง ๆ กลายเป็นสโมสรนักศึกษาหญิงที่เต็มไปด้วยสาว ๆ สุดแสบ หลุดโลกยิ่งกว่าเท็ดดี้ (แอฟรอน) และเพื่อน ๆ ที่ย้ายออกไป ละแวกบ้านของพวกเขาจึงกลายเป็นพื้นที่ไม่ปลอดภัยอีกต ่อไป แมคและเคลลี่ จึงต้องงัดกลยุทธ์มาปราบเหล่าคัปป้านู สาวแสบข้างบ้านเมื่อสาว ๆ คัปป้านู เชลบี้ (มอเรตซ์), เบธ (เคียร์ซี่ คลีมอนส์) และนอร่า (บีนนี่ เฟลด์สไตน์) เบื่อกับระบบเข้มงวดของมหาวิทยาลัย พวกเธอจึงย้ายออกมาอยู่บ้านนอกมหาวิทยาลัย ที่ซึ่งสามารถทำอะไรตามใจตัวเองได้เต็มที่ความเกรียน ของสาว ๆ คัปป้านู แสบสันยิ่งกว่าหนุ่ม ๆ ข้างบ้านที่ย้ายออกไปแล้ว แมค และเคลลี่ พร้อมด้วยจิมมี่ (ไอค์ บารินโฮลท์ซ) และพอลล่า (คาร์ลา กัลโล) จึงต้องพึ่งพาหนุ่มหล่อเจ้าเสน่ห์อย่างเท็ดดี้มาช่วย พาพวกเขาแทรกซึมสู่บ้าน ของคัปป้านู เพื่อที่จะจัดการกับพวกเธอ]


    Author wrote:
    Bad Neighbors 2 Sorotity Rising 2016 BluRay 1080p x265 HEVC.mkv

    Format : Matroska
    Format version : Version 4 / Version 2
    File size : 2.55 GiB
    Duration : 1 h 32 min
    Overall bit rate : 3 950 kb/s
    Movie name : Bad Neighbors 2 Sorotity Rising 2016 8bit BluRay 1080p x265 HEVC AC3 5.1-thiphAk0rn
    Encoded date : UTC 2016-09-06 12:57:48
    Writing application : mkvmerge v9.4.0 ( Knurl ) 64bit
    Writing library : libebml v1.3.4 + libmatroska v1.4.5
    Cover : Yes
    Attachments : cover_land.jpg / small_cover.jpg / small_cover_land.jpg / cover.jpg

    Video
    ID : 1
    Format : HEVC
    Format/Info : High Efficiency Video Coding
    Format profile : [email protected]@High
    Codec ID : V_MPEGH/ISO/HEVC
    Duration : 1 h 32 min
    Bit rate : 3 487 kb/s
    Width : 1 920 pixels
    Height : 796 pixels
    Display aspect ratio : 2.40:1
    Frame rate mode : Constant
    Frame rate : 23.976 (24000/1001) FPS
    Color space : YUV
    Chroma subsampling : 4:2:0
    Bit depth : 8 bits
    Bits/(Pixel*Frame) : 0.095
    Stream size : 2.25 GiB (88%)
    Title : Bad Neighbors 2 Sorotity Rising 2016 8bit BluRay 1080p x265 HEVC AC3 5.1-thiphAk0rn
    Language : English
    Default : Yes
    Forced : No

    Audio #1
    ID : 2
    Format : AC-3
    Format/Info : Audio Coding 3
    Mode extension : CM (complete main)
    Format settings, Endianness : Big
    Codec ID : A_AC3
    Duration : 1 h 32 min
    Bit rate mode : Constant
    Bit rate : 192 kb/s
    Channel(s) : 6 channels
    Channel positions : Front: L C R, Side: L R, LFE
    Sampling rate : 48.0 kHz
    Frame rate : 31.250 FPS (1536 spf)
    Compression mode : Lossy
    Stream size : 127 MiB (5%)
    Title : AC3 5.1
    Language : Thai
    Default : Yes
    Forced : No

    Audio #2
    ID : 3
    Format : AC-3
    Format/Info : Audio Coding 3
    Mode extension : CM (complete main)
    Format settings, Endianness : Big
    Codec ID : A_AC3
    Duration : 1 h 32 min
    Bit rate mode : Constant
    Bit rate : 192 kb/s
    Channel(s) : 6 channels
    Channel positions : Front: L C R, Side: L R, LFE
    Sampling rate : 48.0 kHz
    Frame rate : 31.250 FPS (1536 spf)
    Compression mode : Lossy
    Stream size : 127 MiB (5%)
    Title : AC3 5.1
    Language : English
    Default : No
    Forced : No

    Text #1
    ID : 4
    Format : UTF-8
    Codec ID : S_TEXT/UTF8
    Codec ID/Info : UTF-8 Plain Text
    Language : English
    Default : Yes
    Forced : No

    Text #2
    ID : 5
    Format : UTF-8
    Codec ID : S_TEXT/UTF8
    Codec ID/Info : UTF-8 Plain Text
    Title : English SRT
    Language : English
    Default : No
    Forced : No

    Text #3
    ID : 6
    Format : VobSub
    Muxing mode : zlib
    Codec ID : S_VOBSUB
    Codec ID/Info : Picture based subtitle format used on DVDs
    Title : Thai 1080p
    Language : Thai
    Default : No
    Forced : No

    Text #4
    ID : 7
    Format : PGS
    Muxing mode : zlib
    Codec ID : S_HDMV/PGS
    Codec ID/Info : Picture based subtitle format used on BDs/HD-DVDs
    Title : Thai PGS
    Language : Thai
    Default : No
    Forced : No





    http://www.mekafile.com/dl.php?f=3Q9196bfURYo

  2. #2
    Member
    Join Date
    May 2018
    Posts
    33
    Thanks
    0
    Thanked 0 Times in 0 Posts
    ไฟล์เสียครับ

+ Reply to Thread

Thread Information

Users Browsing this Thread

There are currently 1 users browsing this thread. (0 members and 1 guests)

     

Posting Permissions

  • You may not post new threads
  • You may not post replies
  • You may not post attachments
  • You may not edit your posts