+ Reply to Thread
Results 1 to 7 of 7
  1. #1
    Administrators Duckload.us's Avatar
    Join Date
    Dec 2010
    Posts
    105,453
    Thanks
    9
    Thanked 109,146 Times in 51,180 Posts

    Exclamation [ฝรั่ง]-[พิเศษ! มีเสียงพากย์ไทย] Fringe : The Complete 3rd Season ฟรินจ์ เลาะปมพิศวงโลก ปี 3 (BlurayRip 720p)-MiniBD.AC-3.720p. [Hi-def rip from Master]-[พากย์ไทย บรรยายไทย]



    Fringe : The Complete Third Season ฟรินจ์ เลาะปมพิศวงโลก ปี 3


    ไฟล์อันนี้มาจาก BlurayRip นะคะ เพราะฉะนั้นเป็นฉบับเต็ม ไม่มีตัด ไม่มีเซ็นเซอร์ ส่วนเสียงพากย์ไทยดึงมาจากแผ่น VCD ค่ะ นำมาปรับและตัดต่อใหม่เพื่อให้พอดีกับตัวหนัง ส่วนบทบรรยายไทยมาจากแผ่น DVD มาสเตอร์ค่ะ (ขอขอบคุณคุณ jiffjiff และคุณ NoxziE ที่กรุณาเอื้อเฟื้อไฟล์ค่ะ )





    เรื่องย่อ

    FRINGE เป็นเรื่องราวการสืบสวนเกี่ยวกับคดีที่แปลกประหลาดเห นือธรรมชาติ ซึ่งเกิดขึ้นทั่วโลก โดยมีใครบางคนอยู่เบื้องหลังเรื่องราวทั้งหมดเหล่านี ้และกำลังใช้โลกใบนี้เป็นเสมือนห้องทดลองวิทยาศาสตร์ ของตนโดยมีจุดประสงค์บางอย่างซ่อนเร้นอยู่

    เหตุการณ์เริ่มต้นขึ้นเมื่อเที่ยวบินระหว่างประเทศได ้ร่อนลงอย่างฉุกเฉิน ณ.ท่าอากาศยาน บอสตัน แต่ปรากฏว่าเที่ยวบินนี้ไม่พบผู้รอดมีชีวิตจึงเดือดร ้อนกันทั่วหน้า ตั้งแต่เจ้าหน้าที่ FBI อย่างโอลิเวีย ดันแฮม นักวิทยาศาสตร์ดร.วอลเตอร์ บิชอป พร้อมกับลูกชายเขาที่ชื่อ ปีเตอร์ ต้องร่วมมือกันสืบหาสาเหตุของเหตุการณ์ลึกลับในครั้ง นี้ โดยต้องนำเอาความสามารถอย่างศาสตร์มาช่วยในการสืบคดี พบกับเรื่องราวในการสืบหาความจริงในครั้งนี้
    ได้ใน ฟรินจ์ เลาะปมพิศวงโลก

    The FBI teams up with a formerly-institutionalized scientist - who was performing experiments on the fringe of real science - and his son to investigate weird crimes that are seemingly part of a larger pattern, and may be connected with a global company called Massive Dynamic.


    นักแสดง

    Anna Torv ... Olivia Dunham
    Joshua Jackson ... Peter Bishop
    Jasika Nicole ... Astrid Farnsworth
    John Noble ... Dr. Walter Bishop
    Lance Reddick ... Phillip Broyles
    Blair Brown ... Nina Sharp


    General
    Unique ID : 225588439160463048657481066182507467016 (0xA9B6C0C52D213DA3AB9F3BE22E739108)
    Complete name : G:TV SeriesFringeSeason 3 (BluRay 720p)Fringe - 03x01 - Olivia [720p BluRay x264-REWARD] (Modified by ShAlex).mkv
    Format : Matroska
    Format version : Version 4 / Version 2
    File size : 2.22 GiB
    Duration : 43 min
    Overall bit rate : 7 238 kb/s
    Movie name : Modified by ShAlex
    Encoded date : UTC 2016-07-25 11:43:00
    Writing application : mkvmerge v9.2.0 ( Photograph ) 64bit
    Writing library : libebml v1.3.3 + libmatroska v1.4.4

    Video
    ID : 1
    Format : AVC
    Format/Info : Advanced Video Codec
    Format profile : [email protected]
    Format settings, CABAC : Yes
    Format settings, ReFrames : 5 frames
    Codec ID : V_MPEG4/ISO/AVC
    Duration : 43 min
    Bit rate : 5 596 kb/s
    Width : 1 280 pixels
    Height : 720 pixels
    Display aspect ratio : 16:9
    Frame rate mode : Constant
    Frame rate : 23.976 (24000/1001) FPS
    Color space : YUV
    Chroma subsampling : 4:2:0
    Bit depth : 8 bits
    Scan type : Progressive
    Bits/(Pixel*Frame) : 0.253
    Stream size : 1.72 GiB (77%)
    Title : Episode 301 : Olivia
    Writing library : x264 core 116 r2057 0ba8a9c
    Encoding settings : cabac=1 / ref=5 / deblock=1:0:0 / analyse=0x3:0x113 / me=umh / subme=8 / psy=1 / psy_rd=1.00:0.00 / mixed_ref=1 / me_range=16 / chroma_me=1 / trellis=1 / 8x8dct=1 / cqm=0 / deadzone=21,11 / fast_pskip=1 / chroma_qp_offset=-2 / threads=12 / sliced_threads=0 / nr=0 / decimate=1 / interlaced=0 / bluray_compat=0 / constrained_intra=0 / bframes=3 / b_pyramid=2 / b_adapt=2 / b_bias=0 / direct=3 / weightb=1 / open_gop=0 / weightp=2 / keyint=240 / keyint_min=24 / scenecut=40 / intra_refresh=0 / rc_lookahead=50 / rc=2pass / mbtree=1 / bitrate=5596 / ratetol=1.0 / qcomp=0.60 / qpmin=0 / qpmax=69 / qpstep=4 / cplxblur=20.0 / qblur=0.5 / ip_ratio=1.40 / aq=1:1.00
    Language : English
    Default : Yes
    Forced : No

    Audio #1
    ID : 2
    Format : AC-3
    Format/Info : Audio Coding 3
    Mode extension : CM (complete main)
    Format settings, Endianness : Big
    Codec ID : A_AC3
    Duration : 43 min
    Bit rate mode : Constant
    Bit rate : 128 kb/s
    Channel(s) : 2 channels
    Channel positions : Front: L R
    Sampling rate : 48.0 kHz
    Frame rate : 31.250 FPS (1536 spf)
    Compression mode : Lossy
    Stream size : 40.3 MiB (2%)
    Title : Thai (from VCD Master)
    Language : Thai
    Default : Yes
    Forced : No

    Audio #2
    ID : 3
    Format : DTS
    Format/Info : Digital Theater Systems
    Mode : 16
    Format settings, Endianness : Big
    Codec ID : A_DTS
    Duration : 43 min
    Bit rate mode : Constant
    Bit rate : 1 509 kb/s
    Channel(s) : 6 channels
    Channel positions : Front: L C R, Side: L R, LFE
    Sampling rate : 48.0 kHz
    Frame rate : 93.750 FPS (512 spf)
    Bit depth : 24 bits
    Compression mode : Lossy
    Stream size : 475 MiB (21%)
    Title : English
    Language : English
    Default : No
    Forced : No

    Text #1
    ID : 4
    Format : VobSub
    Codec ID : S_VOBSUB
    Codec ID/Info : Picture based subtitle format used on DVDs
    Duration : 43 min
    Bit rate : 3 123 b/s
    Count of elements : 478
    Stream size : 1 004 KiB (0%)
    Title : Thai VobSub
    Language : Thai
    Default : Yes
    Forced : No

    Text #2
    ID : 5
    Format : UTF-8
    Codec ID : S_TEXT/UTF8
    Codec ID/Info : UTF-8 Plain Text
    Duration : 43 min
    Bit rate : 114 b/s
    Count of elements : 477
    Stream size : 36.9 KiB (0%)
    Title : Thai SRT
    Language : Thai
    Default : No
    Forced : No

    Text #3
    ID : 6
    Format : UTF-8
    Codec ID : S_TEXT/UTF8
    Codec ID/Info : UTF-8 Plain Text
    Duration : 43 min
    Bit rate : 51 b/s
    Count of elements : 486
    Stream size : 16.7 KiB (0%)
    Title : English SRT
    Language : English
    Default : No
    Forced : No


    Screenshot









    1
    http://www.mekafile.com/dl.php?f=XDd205bhNCpg
    2
    http://www.mekafile.com/dl.php?f=dd18e2bhNCzE
    3
    http://www.mekafile.com/dl.php?f=qY759ebhNCEh
    4
    http://www.mekafile.com/dl.php?f=Le9fbfbhNCJt
    5
    http://www.mekafile.com/dl.php?f=S46d1abhNCQm
    6
    http://www.mekafile.com/dl.php?f=B73146bhNCX8
    7
    http://www.mekafile.com/dl.php?f=LF9ad0bhND3N
    8
    http://www.mekafile.com/dl.php?f=5Ic144bhNDaz
    9
    http://www.mekafile.com/dl.php?f=9n8e76bhNDhe
    10
    http://www.mekafile.com/dl.php?f=Zy3566bhNDoe
    11
    http://www.mekafile.com/dl.php?f=ACd9c5bhNDv0
    12
    http://www.mekafile.com/dl.php?f=QM404dbhNDCl
    13
    http://www.mekafile.com/dl.php?f=UU6383bhNDIr
    14
    http://www.mekafile.com/dl.php?f=H8035bbhNDQe
    15
    http://www.mekafile.com/dl.php?f=hN5f1ebhNDWd
    16
    http://www.mekafile.com/dl.php?f=cYa773bhNE2L
    17
    http://www.mekafile.com/dl.php?f=T05695bhNE9x
    18
    http://www.mekafile.com/dl.php?f=ujb853bhNEgq
    19
    http://www.mekafile.com/dl.php?f=sTd1c2bhNEnj
    20
    http://www.mekafile.com/dl.php?f=AA5ef3bhNEtY
    21
    http://www.mekafile.com/dl.php?f=VY2fc5bhNEAK
    22
    http://www.mekafile.com/dl.php?f=RV0ff4bhNEHw

  2. The Following 2 Users Say Thank You to Duckload.us For This Useful Post:

    sakpol2 (10-31-2016), Wesker_TOT (10-24-2016)

  3. #2
    Senior Member
    Join Date
    Dec 2013
    Posts
    1,725
    Thanks
    3,682
    Thanked 0 Times in 0 Posts
    ขอบคุณครับ...

  4. #3
    Senior Member
    Join Date
    Jul 2012
    Posts
    6,117
    Thanks
    0
    Thanked 0 Times in 0 Posts
    ขอบคุณมากจ้า

  5. #4
    Senior Member
    Join Date
    Oct 2012
    Posts
    512
    Thanks
    12
    Thanked 0 Times in 0 Posts
    ขอบคุณมากมายครับ.

  6. #5
    Member
    Join Date
    May 2018
    Posts
    73
    Thanks
    0
    Thanked 1 Time in 1 Post
    ตอน 1 3 11 12 18 เสียครับ

  7. #6
    Member
    Join Date
    Jul 2013
    Posts
    36
    Thanks
    51
    Thanked 1 Time in 1 Post
    ตอน 1 3 11 12 18 เสียครับ

    ด้วยคนครับ

  8. #7
    Junior Member
    Join Date
    Jul 2019
    Posts
    1
    Thanks
    0
    Thanked 0 Times in 0 Posts
    ตอนที่ 18 เสียครับ

+ Reply to Thread

Thread Information

Users Browsing this Thread

There are currently 1 users browsing this thread. (0 members and 1 guests)

     

Posting Permissions

  • You may not post new threads
  • You may not post replies
  • You may not post attachments
  • You may not edit your posts