+ Reply to Thread
Results 1 to 2 of 2
  1. #1
    Administrators Duckload.us's Avatar
    Join Date
    Dec 2010
    Posts
    100,872
    Thanks
    9
    Thanked 102,435 Times in 48,996 Posts

    Exclamation [+18][ฝรั่ง] Chloe โคลอี้ เธอซ่อนร้าย [2009] ++ BDRip.H.264.1080p. [Audio:Thai 5.1/English 5.1][Sub:Thai/English]-[Modified]-[พากย์ไทย]

    [+18] Chloe โคลอี้ เธอซ่อนร้าย [2009] BDRip.H.264.1080p. [Audio:Thai 5.1/English 5.1][Sub:Thai/English]-[Modified]-[พากย์ไทย]







    Chloe ภาพยนตร์ Drama Thriller ฝีมือการกำกับของ อะตอม อีโกยัน [Atom Egoyan] ผู้กำกับมือรางวัลชาวแคนาเดียนเชื้อสายอียิปต์ที่การ ันตีด้วยผลงานภาพยนตร์แนวอินดี้ยอดเยี่ยมที่คว้ารางว ัลจากเวทีการประกวดทั่วโลกมาแล้วกว่า 40 ครั้ง ผลงานเด่น ๆ ที่ผ่านมาของผู้กำกับผู้นี้อาทิภาพยนตร์ The Sweet Hereafter ในปี 1997 ที่ทำให้เค้าเข้าชิงรางวัลออสการ์ถึง 2 สาขาและยังมีภาพยนตร์ฟิล์มนัวร์เรื่องเยี่ยมที่ถูกคั ดเลือกให้เข้าฉายในเทศกาลหนังเมืองคานส์ในปี 2005 อย่าง Where the Truth Lies โดยภาพยนตร์ Chloe เรื่องนี้บอกเล่าถึงความรักและการหลอกลวงได้รับแรงบั นดาลใจจากภาพยนตร์ เรื่อง Natalie ของ แอน ฟองแต็ง [Anne Fontaine] ผู้กำกับนักเขียนหญิงชาวฝรั่งเศสชื่อดังในปี 2003 นอกจากนี้หนังยังมีความน่าสนใจในการนำเอา 2 ดารารุ่นใหญ่ในวงการอย่าง เลียม นีสัน [Liam Neeson] และ จูลี่แอนน์ มัวร์ [Julianne Moore] มาประชันบทบาทสุดเข้มข้นกับนางเอกสาวสวยดาวรุ่งของวง การในตอนนั้นอย่าง อแมนด้า ไซย์ฟริด [Amanda Seyfried] ที่รับบทบาทหญิงสาวสุดเร้าร้อนและซ่อนความร้ายกาจเก็ บกดและยังเป็นผลงานภาพยนตร์เรื่องแรกที่เธอยอมลงทุนแ สดงบทเปลื้องผ้าอวดหุ่นสุด Sexy ในครั้งนี้จึงขอนำภาพยนตร์เรื่องนี้มาฝากคอหนังนักสะ สมอีกครั้ง








    แคทธาลีน [Julianne Moore] สูตินรีแพทย์ที่ประสบความสำเร็จและ เดวิด [Liam Neeson] อาจารย์ประจำภาควิชามหาวิทยาลัยชื่อดังทั้งสองแต่งงา นและใช้ชีวิตด้วยกันอย่างมีความสุข ทั้งคู่มีหน้ามีตาในสังคมและมีลูกชายที่โตเป็นหนุ่มเ ต็มตัวอย่าง ไมเคิล [Max Thierio] ที่มีอนาคตบนเส้นทางดนตรีแต่แล้วภาพลักษณ์ภายนอกที่ด ูสวยงามก็เริ่มสั่นคลอนเมื่อเดวิดไม่ปรากฏตัวในงานวั นเกิดของตัวเอง ซึ่งทำให้แคทธารีนเริ่มสงสัยถึงความสัมพันธ์ฉันท์ชู้ สาวของเดวิดกับกับนักศึกษาสาวที่เค้าสอน และเพื่อไขข้อข้องใจแคทธาลีนจึงตัดสินใจจ้าง โคลอี้ [Amanda Seyfried] เอสคอร์ทสาวให้มาล่อลวงสามีของเธอเพื่อทดสอบความซื่อ สัตย์ของเค้า แต่การทำงานของโคลอี้ในการล่อลวงเดวิดนั้นกลับทำให้แ คทธาลีนเดินเข้าสู่วังวนของกิเลสและตัณหาและค้นพบกับ ความรู้สึกที่ลืมเลือนไปอีกครั้ง และการเปิดประตูสู่เขตแดนอันต้องห้ามอาจทำให้ชีวิตขอ งคนทั้งสามพบกับการพลิกผันครั้งใหญ่ในชีวิต !!!



    ++ File Screenshots ++
















    ++ IMDB ++

    http://www.imdb.com/title/tt1352824/


    ++ Trailers /ตัวอย่างภาพยนตร์ ++





    General
    File size : 3.16 GiB
    Duration : 1h 35mn
    Overall bit rate : 4 713 Kbps
    Encoded date : UTC 2010-02-22 21:41:31
    Writing application : mkvmerge v5.9.0 ( On The Loose ) built on Dec 9 2012 15:37:01
    Writing library : libebml v1.3.0 + libmatroska v1.4.0


    Video
    ID : 1
    Format : AVC
    Format/Info : Advanced Video Codec
    Format profile : [email protected]
    Format settings, CABAC : Yes
    Format settings, ReFrames : 4 frames
    Muxing mode : Header stripping
    Codec ID : V_MPEG4/ISO/AVC
    Duration : 1h 35mn
    Bit rate : 3 855 Kbps
    Width : 1 920 pixels
    Height : 1 036 pixels
    Display aspect ratio : 1.85:1
    Frame rate mode : Constant
    Frame rate : 23.976 fps
    Color space : YUV
    Chroma subsampling : 4:2:0
    Bit depth : 8 bits
    Scan type : Progressive
    Bits/(Pixel*Frame) : 0.081
    Stream size : 2.50 GiB (79%)
    Title : Chloe [2009] BDRip.H.264.1080p. By Pond
    Writing library : x264 core 130 r2273 b3065e6
    Encoding settings : cabac=1 / ref=4 / deblock=1:0:0 / analyse=0x3:0x113 / me=umh / subme=7 / psy=1 / psy_rd=1.00:0.00 / mixed_ref=1 / me_range=24 / chroma_me=1 / trellis=1 / 8x8dct=1 / cqm=0 / deadzone=21,11 / fast_pskip=1 / chroma_qp_offset=-2 / threads=6 / lookahead_threads=1 / sliced_threads=0 / nr=0 / decimate=1 / interlaced=0 / bluray_compat=0 / constrained_intra=0 / bframes=4 / b_pyramid=2 / b_adapt=2 / b_bias=0 / direct=1 / weightb=1 / open_gop=0 / weightp=2 / keyint=240 / keyint_min=24 / scenecut=40 / intra_refresh=0 / rc_lookahead=40 / rc=abr / mbtree=1 / bitrate=3855 / ratetol=1.0 / qcomp=0.60 / qpmin=0 / qpmax=69 / qpstep=4 / ip_ratio=1.40 / aq=1:1.00
    Language : English
    Default : Yes
    Forced : No
    Color primaries : BT.709
    Transfer characteristics : BT.709
    Matrix coefficients : BT.709


    Audio #1
    ID : 2
    Format : AC-3
    Format/Info : Audio Coding 3
    Mode extension : CM (complete main)
    Format settings, Endianness : Big
    Muxing mode : Header stripping
    Codec ID : A_AC3
    Duration : 1h 35mn
    Bit rate mode : Constant
    Bit rate : 448 Kbps
    Channel(s) : 6 channels
    Channel positions : Front: L C R, Side: L R, LFE
    Sampling rate : 48.0 KHz
    Bit depth : 16 bits
    Compression mode : Lossy
    Stream size : 307 MiB (10%)
    Title : Thai 5.1 [448 Kbps] AC.3 From DVD Master.
    Language : Thai
    Default : Yes
    Forced : No


    Audio #2
    ID : 3
    Format : AC-3
    Format/Info : Audio Coding 3
    Mode extension : CM (complete main)
    Format settings, Endianness : Big
    Muxing mode : Header stripping
    Codec ID : A_AC3
    Duration : 1h 35mn
    Bit rate mode : Constant
    Bit rate : 448 Kbps
    Channel(s) : 6 channels
    Channel positions : Front: L C R, Side: L R, LFE
    Sampling rate : 48.0 KHz
    Bit depth : 16 bits
    Compression mode : Lossy
    Stream size : 307 MiB (10%)
    Title : English 5.1 [448 Kbps] AC.3 From DVD Master.
    Language : English
    Default : No
    Forced : No


    Text #1
    ID : 4
    Format : VobSub
    Muxing mode : zlib
    Codec ID : S_VOBSUB
    Codec ID/Info : The same subtitle format used on DVDs
    Title : Thai 480p.
    Language : Thai
    Default : No
    Forced : No


    Text #2
    ID : 5
    Format : VobSub
    Muxing mode : zlib
    Codec ID : S_VOBSUB
    Codec ID/Info : The same subtitle format used on DVDs
    Title : English 480p.
    Language : English
    Default : No
    Forced : No







    ...:: Modified By Pond ::...


    http://www.mekafile.com/dl.php?f=RU7bdfbQNDFo fix

  2. The Following 7 Users Say Thank You to Duckload.us For This Useful Post:

    beer181235 (01-27-2017), chakhrit (01-27-2017), inutero (01-28-2017), maithevictim (01-31-2017), noi54 (01-28-2017), sommitr (01-27-2017), Visit (01-27-2017)

  3. #2
    Senior Member maithevictim's Avatar
    Join Date
    Mar 2016
    Posts
    108
    Thanks
    63
    Thanked 0 Times in 0 Posts
    ขอบคุณครับ

+ Reply to Thread

Thread Information

Users Browsing this Thread

There are currently 1 users browsing this thread. (0 members and 1 guests)

     

Posting Permissions

  • You may not post new threads
  • You may not post replies
  • You may not post attachments
  • You may not edit your posts