+ Reply to Thread
Results 1 to 2 of 2
  1. #1
    Administrators Duckload.us's Avatar
    Join Date
    Dec 2010
    Posts
    83,049
    Thanks
    9
    Thanked 88,021 Times in 42,062 Posts

    Angry []-Marvels Agents of S.H.I.E.L.D. (2017) Season 4 Episode 10 [1080p WEB-DL] [§ѧ 5.1] [ + ѧ] [Ѻ¾ͧ FOX Thai] [Ѻ PGS, IDX, SRT]

    cornfile.com
    !
    Ѻ· Ҿͧ FOX Thai ͹
    ѹ 繫Ѻ¤سҾ͹








    ͧ

    ͡ԴԵͧ˹ҷŴ ͧѺ͡Ѻ˹͸ҵ 駼ҧ Ҩ Ҩе͡áѺѧ ͧԴ





    ѡʴ















    General
    Unique ID : 195751745681940723670683599540048402177 (0x93446A34C18837C99D4AC6F752CC9701)
    Complete name : Marvels.Agents.of.S.H.I.E.L.D.S04E10.1080p.WEB-DL.DD5.1.H.264-jaideejung007.mkv
    Format : Matroska
    Format version : Version 4 / Version 2
    File size : 1.75 GiB
    Duration : 43 min 36 s
    Overall bit rate : 5 742 kb/s
    Movie name : Marvels.Agents.of.S.H.I.E.L.D.S04E10.1080p.WEB-DL.DD5.1.H.264-jaideejung007
    Encoded date : UTC 2017-02-27 11:44:54
    Writing application : mkvmerge v9.9.0 ( Pick Up ) 64bit
    Writing library : libebml v1.3.4 + libmatroska v1.4.5

    Video
    ID : 1
    Format : AVC
    Format/Info : Advanced Video Codec
    Format profile : [email protected]
    Format settings, CABAC : Yes
    Format settings, ReFrames : 4 frames
    Codec ID : V_MPEG4/ISO/AVC
    Duration : 43 min 36 s
    Bit rate : 5 200 kb/s
    Width : 1 920 pixels
    Height : 1 080 pixels
    Display aspect ratio : 16:9
    Frame rate mode : Constant
    Frame rate : 23.976 (23976/1000) FPS
    Color space : YUV
    Chroma subsampling : 4:2:0
    Bit depth : 8 bits
    Scan type : Progressive
    Bits/(Pixel*Frame) : 0.105
    Stream size : 1.58 GiB (91%)
    Title : Marvels.Agents.of.S.H.I.E.L.D.S04E10.1080p.WEB-DL.DD5.1.H.264-jaideejung007
    Language : English
    Default : Yes
    Forced : No
    Color range : Limited
    Color primaries : BT.709
    Transfer characteristics : BT.709
    Matrix coefficients : BT.709

    Audio
    ID : 2
    Format : AC-3
    Format/Info : Audio Coding 3
    Mode extension : CM (complete main)
    Format settings, Endianness : Big
    Codec ID : A_AC3
    Duration : 43 min 36 s
    Bit rate mode : Constant
    Bit rate : 384 kb/s
    Channel(s) : 6 channels
    Channel positions : Front: L C R, Side: L R, LFE
    Sampling rate : 48.0 kHz
    Frame rate : 31.250 FPS (1536 spf)
    Compression mode : Lossy
    Stream size : 120 MiB (7%)
    Title : Marvels.Agents.of.S.H.I.E.L.D.S04E10.1080p.WEB-DL.DD5.1.H.264-jaideejung007
    Language : English
    Default : Yes
    Forced : No

    Text #1
    ID : 3
    Format : VobSub
    Codec ID : S_VOBSUB
    Codec ID/Info : Picture based subtitle format used on DVDs
    Duration : 42 min 32 s
    Bit rate : 3 785 b/s
    Count of elements : 809
    Stream size : 1.15 MiB (0%)
    Title : Thai 480p
    Language : Thai
    Default : No
    Forced : No

    Text #2
    ID : 4
    Format : VobSub
    Codec ID : S_VOBSUB
    Codec ID/Info : Picture based subtitle format used on DVDs
    Duration : 42 min 32 s
    Bit rate : 7 321 b/s
    Count of elements : 809
    Stream size : 2.23 MiB (0%)
    Title : Thai 720p
    Language : Thai
    Default : No
    Forced : No

    Text #3
    ID : 5
    Format : VobSub
    Codec ID : S_VOBSUB
    Codec ID/Info : Picture based subtitle format used on DVDs
    Duration : 42 min 32 s
    Bit rate : 13.5 kb/s
    Count of elements : 809
    Stream size : 4.11 MiB (0%)
    Title : Thai 1080p
    Language : Thai
    Default : Yes
    Forced : Yes

    Text #4
    ID : 6
    Format : VobSub
    Codec ID : S_VOBSUB
    Codec ID/Info : Picture based subtitle format used on DVDs
    Duration : 42 min 32 s
    Bit rate : 12.1 kb/s
    Count of elements : 809
    Stream size : 3.67 MiB (0%)
    Title : Thai 1080p Yellow
    Language : Thai
    Default : No
    Forced : No

    Text #5
    ID : 7
    Format : VobSub
    Codec ID : S_VOBSUB
    Codec ID/Info : Picture based subtitle format used on DVDs
    Duration : 42 min 32 s
    Bit rate : 13.5 kb/s
    Count of elements : 809
    Stream size : 4.11 MiB (0%)
    Title : Thai 1080p OUT
    Language : Thai
    Default : No
    Forced : No

    Text #6
    ID : 8
    Format : PGS
    Codec ID : S_HDMV/PGS
    Codec ID/Info : Picture based subtitle format used on BDs/HD-DVDs
    Duration : 42 min 32 s
    Bit rate : 54.3 kb/s
    Count of elements : 1618
    Stream size : 16.5 MiB (1%)
    Title : Thai PGS
    Language : Thai
    Default : No
    Forced : No

    Text #7
    ID : 9
    Format : PGS
    Codec ID : S_HDMV/PGS
    Codec ID/Info : Picture based subtitle format used on BDs/HD-DVDs
    Duration : 42 min 32 s
    Bit rate : 54.3 kb/s
    Count of elements : 1618
    Stream size : 16.5 MiB (1%)
    Title : Thai PGS OUT
    Language : Thai
    Default : No
    Forced : No

    Text #8
    ID : 10
    Format : UTF-8
    Codec ID : S_TEXT/UTF8
    Codec ID/Info : UTF-8 Plain Text
    Duration : 43 min 26 s
    Bit rate : 81 b/s
    Count of elements : 822
    Stream size : 26.0 KiB (0%)
    Title : CC
    Language : English
    Default : No
    Forced : No

    Text #9
    ID : 11
    Format : UTF-8
    Codec ID : S_TEXT/UTF8
    Codec ID/Info : UTF-8 Plain Text
    Duration : 43 min 26 s
    Bit rate : 87 b/s
    Count of elements : 984
    Stream size : 27.7 KiB (0%)
    Title : CC (SDH)
    Language : English
    Default : No
    Forced : No






    Ҿҧ






    ҧҾ¹




    ѹѧ
    FOX Thai
    Ѻ¾ͧ FOX Thai jaideejung007


    http://cornfile.com/44ytenvgkqqx

  2. #2
    Senior Member
    Join Date
    Jul 2013
    Posts
    136
    Thanks
    2
    Thanked 0 Times in 0 Posts
    ŴǤѺ

Thread Information

Users Browsing this Thread

There are currently 1 users browsing this thread. (0 members and 1 guests)

     

Posting Permissions

  • You may not post new threads
  • You may not post replies
  • You may not post attachments
  • You may not edit your posts