+ Reply to Thread
Results 1 to 2 of 2
  1. #1
    I'm donate !
    Join Date
    Jul 2011
    Posts
    6
    Thanks
    0
    Thanked 1 Time in 1 Post

    Lightbulb The Last Ship ยุทธการเรือรบพิฆาตไวรัส Season 1 HD 1080p [เสียง ไทย/อังกฤษ บรรยาย ไทย/อังกฤษ]

    cornfile.com


    สร้างจากนิยายชื่อเรื่องเดียวกันของนักเขียน William Brinkley เป็นเรื่องราวที่เกิดขึ้นบนเรือพิฆาตพลังงานนิวเคลีย ร์ลำหนึ่งที่เหลือรอดอยู่เพียงลำเดียวภายหลังเหตุการ ณ์สงครามนิวเคลียร์ล้างโลก แล่นตระเวณฑ์ไปทั่วโลกในภารกิจเพื่อค้นหาผู้รอดชีวิต และหาสถานที่ปลอดภัยจากฝุ่นกัมมันตภาพรังสีเพื่อสืบท อดเผ่าพันธุ์มนุษย์ต่อไปให้ได้ (ความจริงในนิยายมีเรือรบรอด 2 ลำ ของรัสเซีย 1 ของสหรัฐ 1 ร่วมมือกันเพื่อความอยู่รอดของมนุษยชาติ แต่เนื้อเรื่องโฟกัสที่เรือของสหรัฐ และท้ายเรื่องก็เหลือเรือแค่ลำเดียวจริงๆ) แต่ดูจากตัวอย่างซีรี่ย์น่าจะมีการดัดแปลงไปเยอะพอสม ควรเลย เพราะดูจากตัวอย่างซีรี่ย์เป็นเรื่องของโรคระบาดร้าย แรงที่แพร่กระจายไปทั่วโลก และเรือรบลำนี้ถูกส่งออกไปเพื่อค้นหายารักษาโรค

    นักแสดง:
    Eric Dane as CO CDR Tom Chandler
    Rhona Mitra as Dr.Rachel Scott
    Adam Baldwin as XO Mike Slattery
    Travis Van Winkle as Lt. Danny Green
    Marissa Neitling as LT. Kara Foster
    Charles Parnell as CMC Jeter
    Christina Elmore as Lt. Alisha Granderson
    Jocko Sims as LT. Carlton Burk
    John Pyper-Ferguson as Tex
    Kevin Michael Martin as Miller
    Michael Curran-Dorsano as Gator

    Video
    ID : 1
    Format : AVC
    Format/Info : Advanced Video Codec
    Format profile : [email protected]
    Format settings, CABAC : Yes
    Format settings, ReFrames : 4 frames
    Codec ID : V_MPEG4/ISO/AVC
    Duration : 45mn 32s
    Bit rate : 4 196 Kbps
    Width : 1 920 pixels
    Height : 1 080 pixels
    Display aspect ratio : 16:9
    Frame rate mode : Constant
    Frame rate : 23.976 fps
    Color space : YUV
    Chroma subsampling : 4:2:0
    Bit depth : 8 bits
    Scan type : Progressive
    Bits/(Pixel*Frame) : 0.084
    Stream size : 1.33 GiB (86%)
    Title : The.Last.Ship S01E01 Pilot Phase Six
    Language : English
    Default : Yes
    Forced : No
    Color range : Limited
    Color primaries : BT.709
    Transfer characteristics : BT.709
    Matrix coefficients : BT.709

    Audio #1
    ID : 2
    Format : AC-3
    Format/Info : Audio Coding 3
    Mode extension : CM (complete main)
    Format settings, Endianness : Big
    Codec ID : A_AC3
    Duration : 45mn 32s
    Bit rate mode : Constant
    Bit rate : 192 Kbps
    Channel(s) : 2 channels
    Channel positions : Front: L R
    Sampling rate : 44.1 KHz
    Compression mode : Lossy
    Stream size : 62.5 MiB (4%)
    Title : The.Last.Ship S01E01 Pilot Phase Six
    Language : Thai
    Default : Yes
    Forced : No

    Audio #2
    ID : 3
    Format : AC-3
    Format/Info : Audio Coding 3
    Mode extension : CM (complete main)
    Format settings, Endianness : Big
    Codec ID : A_AC3
    Duration : 45mn 32s
    Bit rate mode : Constant
    Bit rate : 384 Kbps
    Channel(s) : 6 channels
    Channel positions : Front: L C R, Side: L R, LFE
    Sampling rate : 48.0 KHz
    Compression mode : Lossy
    Stream size : 125 MiB (8%)
    Title : The.Last.Ship S01E01 Pilot Phase Six
    Language : English
    Default : No
    Forced : No

    Text #1
    ID : 4
    Format : ASS
    Codec ID : S_TEXT/ASS
    Codec ID/Info : Advanced Sub Station Alpha
    Compression mode : Lossless
    Title : The.Last.Ship S01E01 Pilot Phase Six
    Language : Thai
    Default : Yes
    Forced : No

    Text #2
    ID : 5
    Format : UTF-8
    Codec ID : S_TEXT/UTF8
    Codec ID/Info : UTF-8 Plain Text
    Title : The.Last.Ship S01E01 Pilot Phase Six
    Language : English
    Default : No
    Forced : No









    ตอนที่ 1
    http://adf.ly/1laYTO
    ตอนที่ 2
    http://adf.ly/1laYSO
    ตอนที่ 3
    http://adf.ly/1lag2a
    ตอนที่ 4
    http://adf.ly/1lb3qo
    ตอนที่ 5
    http://adf.ly/1lb3uC
    ตอนที่ 6
    http://adf.ly/1lcbiU
    ตอนที่ 7
    http://adf.ly/1lcbt6
    ตอนที่ 8
    http://adf.ly/1ldCNV
    ตอนที่ 9
    http://adf.ly/1ldCRD
    ตอนที่ 10
    http://bluenik.com/Mm
    Last edited by mxn; 03-20-2017 at 07:16 PM.

  2. #2
    Member
    Join Date
    Aug 2015
    Posts
    37
    Thanks
    0
    Thanked 0 Times in 0 Posts
    ขอบคุณครับ

+ Reply to Thread

Thread Information

Users Browsing this Thread

There are currently 1 users browsing this thread. (0 members and 1 guests)

     

Posting Permissions

  • You may not post new threads
  • You may not post replies
  • You may not post attachments
  • You may not edit your posts