+ Reply to Thread
Results 1 to 9 of 9
  1. #1
    Administrators Duckload.us's Avatar
    Join Date
    Dec 2010
    Posts
    106,041
    Thanks
    9
    Thanked 109,970 Times in 51,393 Posts

    Lightbulb [ญี่ปุ่น]-[HD] [การ์ตูนยอดนิยม] [มัดรวม] One Piece Season 1-17 [พากย์ไทย] [Modified] [ตอนที่1-673] [720p-1080p]-HDTV.DTS.720p. [อัดจาก TV]-[พากย์ไทย]




    วันพีช เป็นเรื่องในยุคของโจรสลัดและฝ่ายทหารเรือ เพื่อค้นหา สมบัติที่เรียกว่า
    "วันพีซ" โดยผู้ที่มีวันพีซอยู่นั้นคือเจ้าแห่งโจรสลัด
    โดยผู้ที่เคยครอบครองวันพีซนั้นมีอยู่คนเดียวตามที่เ ปิดเผยมาคือ เจ้าแห่งโจรสลัด โกลด์ ดี โรเจอร์
    มังกี้ ดี ลูฟีลูกชายของนักปฏิวัติ มังกี้ ดี ดรากอน
    ได้พบกับ โจรสลัด แชงคูส (ตอนนี้เป็น 1 ใน 4 จักรพรรดิ)
    และขโมย ผลปีศาจ ออกมากิน ทำให้ร่างกายมีคุณสมบัติเป็นยาง
    โดยข้อแม้ของผู้กิน ผลปีศาจ จะโดนทะเลรังเกียจ
    ไม่สามารถว่ายน้ำได้และหมดพลังที่ได้รับมา
    ลูฟี่ได้เริ่มต้นการผจญภัยออกเรือเดินทางไปทะเลแกรนด ์ไลน์โดยใช้เรือ
    ชื่อ โกอิ้งแมรี่ และรวบรวมลูกเรือ คือ โซโล นามิ อุซป ซันจิ
    ช็อปเปอร์ นิโค โรบิน แฟรงกี้ บรู๊ค พวกลูฟี่ได้แล่นเรือจากอิสท์บลู
    เข้ามาในแกรนด์ไลน์ และโดยใช้ล็อกโพส อุปกรณ์นำทางในการเดินเรื่อง
    เพื่อค้นหาสมบัติตามเกาะต่างๆ ทั้ง อาณาจักดรัม อาณาจักรทะลทรายอาบัสดา
    หรือแม้แต่ จายา เกาะแห่งท้องฟ้าสกายเปีย และต้องผ่านด่านของ
    ลองริง ลองแลนด์ จนได้เดินทางมาถึง วอเตอร์เซเวน เพื่อสร้างเรื่อลำใหม่เธาซันซันนี่
    โดยนักต่อเรือแห่ง วอเตอร์เซเวน และรับลูกเรือ แฟรงกี้

    หลังจากเดินทางออกมาจาก วอเตอร์เซเวน ก็เข้ามาใน ฟลอเลี่ยน ไทรแองเกิล
    หมอกที่ไม่มีวันจาง ต้องหนีออกจาก เรือของ เจ็ดเทพโจรสลัด เกกโค โมเรีย
    ที่มีชื่อว่า ทริลเลอ บาคา จนสามารถเดินทางต่อไปยังหมู่เกาะชาบอนดี้
    (ซึ่งผู้ที่จะไปโลกใหม่นั้นจะต้องมาเคลือบเรือที่นี่ ก่อนแล้วจึงเดินทางไปเกาะเงือก
    เพื่อที่จะไปยังอีกฝั่งของ เรดไลน์ ที่กั้นอยู่) ได้ถูก เจดเทพโจรสลัด
    บาโซโลบิว คุมะ แยกกลุ่มโจรสลัดหมวกฟางออกจากกัน และกระจายออกไปยังเกาะต่างๆ
    ซึ่งในขณะเดียวกันได้มีการประกาศวันประหาร โปโตกัส ดี เอส ลูฟี่จึงต้องไปช่วยเอสที่คุก
    อิมเพลดาวน์ โดยได้รับการช่วยเหลือจาก จักรพรรดินีโจรสลัด โบอา แฮนค็อก
    ให้เข้าไปข้างในได้ หลังจากนั้นเมื่อเข้าไปในได้ แต่พบว่าเอสได้ถูกนำตัวไปแล้ว
    ลูฟี่จึงตามไปที่ศูนย์บัญชาการหลักกองทัพเรือพร้อมกั น อีวานคอฟ
    (ราชินีกระเทยเพื่อนของดราก้อน) บากี้ จินเบ(7เทพโจรสลัด)
    ครอกโคไดล์ เพื่อช่วยเอสพร้อมกับกลุ่มโจรสลัดหนวดขาว
    หลังจากนั้นก็ช่วยเอสได้ แต่เอสก็ตายเพราะเอาตัวไปบังลูฟี่เพื่อปกป้องลูฟี่
    จากการโจมตีของ อาคาอินุ(1ใน3พลเอก) หลังจากนั้น ลูฟี่เสียใจมากที่เอสตาย
    แต่พอได้รับการเตือนสติจากจินเบว่ายังมีพวกพ้องอยู่
    ลูฟี่จึงส่งข่าวผ่านทางหนังสือพิมพ์โดยใช้รหัสลับ
    ว่าให้พบกันในอีก 2 ปี ที่หมู่เกาะ ชาบอนดี้
    แล้วทุกคนก็เริ่มฝึกเพื่อพัฒนาฝีมือในการเข้าสู่โลกใ หม่
    หลังจากผ่านไป 2 ปี กลุ่มโจรสลัดหมวกฟางได้มาพบกันอีกครั้ง
    แล้วมุ่งลงสู่เกาะเงือกได้ไปเจอกลุ่มโจรสลัดอาเบะ

    รายละเอียดไฟล์ บางส่วน

    General
    Complete name : T:SeriesOne PieceOne Piece Season 1-17ฤดูกาลที่ 17 เดรสโรซ่าONE PIECE ตอนที่ 629 พากย์ไทย.mp4
    Format : MPEG-4
    Format profile : Base Media
    Codec ID : isom
    File size : 151 MiB
    Duration : 19mn 48s
    Overall bit rate : 1 066 Kbps
    Writing application : Lavf57.20.100

    Video
    ID : 1
    Format : AVC
    Format/Info : Advanced Video Codec
    Format profile : [email protected]
    Format settings, CABAC : Yes
    Format settings, ReFrames : 1 frame
    Format settings, GOP : M=1, N=60
    Codec ID : avc1
    Codec ID/Info : Advanced Video Coding
    Duration : 19mn 48s
    Bit rate : 867 Kbps
    Width : 1 280 pixels
    Height : 720 pixels
    Display aspect ratio : 16:9
    Frame rate mode : Constant
    Frame rate : 29.970 fps
    Color space : YUV
    Chroma subsampling : 4:2:0
    Bit depth : 8 bits
    Scan type : Progressive
    Bits/(Pixel*Frame) : 0.031
    Stream size : 123 MiB (81%)
    Color primaries : BT.709
    Transfer characteristics : BT.709
    Matrix coefficients : BT.709

    Audio
    ID : 2
    Format : AAC
    Format/Info : Advanced Audio Codec
    Format profile : LC
    Codec ID : 40
    Duration : 19mn 48s
    Bit rate mode : Constant
    Bit rate : 192 Kbps
    Channel(s) : 2 channels
    Channel positions : Front: L R
    Sampling rate : 44.1 KHz
    Compression mode : Lossy
    Stream size : 27.2 MiB (18%)
    Language : English


    RampageBLsz ORg Hysteriaz


    1
    http://www.filecondo.com/dl.php?f=nfe5191CV319
    2
    http://www.filecondo.com/dl.php?f=K215131CV2vL
    3
    http://www.filecondo.com/dl.php?f=101bf3e1CV1Fb
    4
    http://www.filecondo.com/dl.php?f=vcad9d1CW2ae
    5
    http://www.filecondo.com/dl.php?f=Lf6b391CVfiW
    6
    http://www.filecondo.com/dl.php?f=F5cd3f1CVgAh
    7
    http://www.filecondo.com/dl.php?f=C8b4981EUVr3 fix
    8
    http://www.filecondo.com/dl.php?f=84fe5e1CVfMm
    9
    http://www.filecondo.com/dl.php?f=N0200c1CVhXp
    10
    http://www.filecondo.com/dl.php?f=9bfdde1CVhww
    11
    http://www.filecondo.com/dl.php?f=0973091CVjdW
    12
    http://www.filecondo.com/dl.php?f=L315441CVjtV
    13
    http://www.filecondo.com/dl.php?f=jea94f1CVmLz
    14
    http://www.filecondo.com/dl.php?f=80c0041CVmQT
    15
    http://www.filecondo.com/dl.php?f=leec631CVnpZ
    16
    http://www.filecondo.com/dl.php?f=249ad81CVoWe
    17
    http://www.filecondo.com/dl.php?f=2648781CVmGO

  2. The Following 4 Users Say Thank You to Duckload.us For This Useful Post:

    n_ton (08-13-2017), Tellmon (01-31-2019), thesuperpop (11-26-2017), Wesker_TOT (08-31-2017)

  3. #2
    Senior Member
    Join Date
    Mar 2013
    Posts
    1,326
    Thanks
    1,343
    Thanked 0 Times in 0 Posts
    ขอบคุณครับ

  4. #3
    Senior Member
    Join Date
    Dec 2013
    Posts
    1,760
    Thanks
    3,712
    Thanked 0 Times in 0 Posts
    ขอบคุณครับ...

  5. #4
    Junior Member
    Join Date
    Oct 2012
    Posts
    5
    Thanks
    0
    Thanked 0 Times in 0 Posts
    ปี19อ่ะครับ อยากได้อ่ะ

  6. #5
    Junior Member
    Join Date
    Nov 2015
    Posts
    3
    Thanks
    0
    Thanked 0 Times in 0 Posts
    รบกวน อัพ Season15 ให้ที ครับ ลิงค เสียแล้วครับ

  7. #6
    Junior Member
    Join Date
    Nov 2015
    Posts
    3
    Thanks
    0
    Thanked 0 Times in 0 Posts
    ขอบคุณมากครับผม ^^

  8. #7
    Junior Member
    Join Date
    Jan 2018
    Posts
    1
    Thanks
    0
    Thanked 0 Times in 0 Posts
    Season 2 ลิงค์เสียแล้วครับ รบกวนอัพใหม่ได้ไหมครับ

  9. #8
    Junior Member
    Join Date
    Mar 2019
    Posts
    1
    Thanks
    0
    Thanked 0 Times in 0 Posts
    Ss6 กับ ss17 เสียครับอัพให้ใหม่ทีครับ ขอบคุณครับ

  10. #9
    Junior Member
    Join Date
    May 2017
    Posts
    2
    Thanks
    0
    Thanked 0 Times in 0 Posts
    Ss6 กับ ss17 เสียครับอัพให้ใหม่ทีครับ ขอบคุณครับ

+ Reply to Thread

Thread Information

Users Browsing this Thread

There are currently 1 users browsing this thread. (0 members and 1 guests)

     

Posting Permissions

  • You may not post new threads
  • You may not post replies
  • You may not post attachments
  • You may not edit your posts