+ Reply to Thread
Page 7 of 12 FirstFirst ... 5 6 7 8 9 ... LastLast
Results 61 to 70 of 115
  1. #61
    Member
    Join Date
    Nov 2012
    Posts
    54
    Thanks
    0
    Thanked 4 Times in 3 Posts

    Angry [չ] [HD 1080p] ˭Ѵ˭ : Island of Fire (1990) : [ҡ]

    cornfile.com


    ˭Ѵ˭ : Island of Fire (1990) ա˹˹ѧ Թŧ ˧Թ
    § 2.0 ҡ vcd ¾ѹԵ


    [IMG][/IMG]


    General
    Unique ID : 200089374112826700187042023255898712657 (0x9687CFCC9A9FE88298CBBAC835B1EA51)
    Complete name : Island.Of.Fire.1990.mkv
    Format : Matroska
    Format version : Version 4 / Version 2
    File size : 5.66 GiB
    Duration : 1h 36mn
    Overall bit rate : 8 407 Kbps
    Encoded date : UTC 2017-08-02 22:45:38
    Writing application : mkvmerge v14.0.0 ('Flow') 64bit
    Writing library : libebml v1.3.4 + libmatroska v1.4.5
    DURATION : 01:36:21.824000000
    NUMBER_OF_FRAMES : 271023
    NUMBER_OF_BYTES : 136866615
    _STATISTICS_WRITING_APP : mkvmerge v14.0.0 ('Flow') 64bit
    _STATISTICS_WRITING_DATE_UTC : 2017-08-02 22:45:38
    _STATISTICS_TAGS : BPS DURATION NUMBER_OF_FRAMES NUMBER_OF_BYTES
    Attachment : Yes

    Video #1
    ID : 1
    Format : AVC
    Format/Info : Advanced Video Codec
    Format profile : [email protected]
    Format settings, CABAC : Yes
    Format settings, ReFrames : 4 frames
    Codec ID : V_MPEG4/ISO/AVC
    Duration : 1h 36mn
    Nominal bit rate : 8 200 Kbps
    Width : 1 920 pixels
    Height : 1 040 pixels
    Display aspect ratio : 1.85:1
    Frame rate mode : Constant
    Frame rate : 23.976 fps
    Color space : YUV
    Chroma subsampling : 4:2:0
    Bit depth : 8 bits
    Scan type : Progressive
    Bits/(Pixel*Frame) : 0.171
    Title : Video
    Writing library : x264 core 130 r2273 b3065e6
    Language : Chinese
    Default : Yes
    Forced : No

    Audio #2
    ID : 2
    Format : AAC
    Format/Info : Advanced Audio Codec
    Format profile : LC
    Codec ID : A_AAC
    Duration : 1h 36mn
    Channel count : 2 channels
    Channel positions : Front: L R
    Sampling rate : 48.0 KHz
    Compression mode : Lossy
    Title : thai vcd 2.0
    Language : Thai
    Default : Yes
    Forced : No

    http://cornfile.com/4mrt9ojip1z4

  2. #62
    Senior Member
    Join Date
    Sep 2014
    Posts
    2,446
    Thanks
    2
    Thanked 0 Times in 0 Posts
    ͺسѺ

  3. #63
    Member
    Join Date
    Nov 2012
    Posts
    54
    Thanks
    0
    Thanked 4 Times in 3 Posts

    [չ] [dvdrip to 720p] շǧš : Mr. Vampire 1992 (1992) : [§Թյ鹩Ѻ]




    շǧš : Mr. Vampire 1992 (1992) ˹ѧѡʴҡաѴա ҨաѴ Թԧ ҾѾŨҡ dvdrip 720p ФѺ § 2.0 Թյ鹩Ѻ


    [IMG][/IMG]


    General
    Unique ID : 204762652837268562879330121420782276196 (0x9A0BDA3AC33AC292A2B31FF372158E64)
    Complete name : D:\շǧš.mkv
    Format : Matroska
    Format version : Version 4 / Version 2
    File size : 3.18 GiB
    Duration : 1h 27mn
    Overall bit rate : 5 192 Kbps
    Encoded date : UTC 2017-08-12 03:04:37
    Writing library : libebml v1.3.0 + libmatroska v1.4.0

    Video #1
    ID : 1
    Format : AVC
    Format/Info : Advanced Video Codec
    Format profile : [email protected]
    Format settings, CABAC : Yes
    Format settings, ReFrames : 3 frames
    Codec ID : V_MPEG4/ISO/AVC
    Duration : 1h 27mn
    Width : 1 280 pixels
    Height : 720 pixels
    Display aspect ratio : 16:9
    Frame rate mode : Constant
    Frame rate : 25.000 fps
    Standard : PAL
    Color space : YUV
    Chroma subsampling : 4:2:0
    Bit depth : 8 bits
    Scan type : Progressive
    Language : English
    Default : Yes
    Forced : No
    Color primaries : BT.709
    Transfer characteristics : BT.709
    Matrix coefficients : BT.709

    Audio #2
    ID : 2
    Format : AAC
    Format/Info : Advanced Audio Codec
    Format profile : LC
    Codec ID : A_AAC
    Duration : 1h 27mn
    Channel count : 2 channels
    Channel positions : Front: L R
    Sampling rate : 48.0 KHz
    Compression mode : Lossy
    Language : Թ
    Default : Yes
    Forced : No

    http://cornfile.com/czlkv9i612ii
    Last edited by galamung; 08-13-2017 at 04:04 PM.

  4. #64
    Senior Member
    Join Date
    May 2012
    Posts
    223
    Thanks
    0
    Thanked 0 Times in 0 Posts
    ͧ§ç鹩Ѻҡ鹷ǹ ͺسѺ˹˹ѧ Ť աѴҡѴͺѺ

  5. #65
    Senior Member
    Join Date
    Jul 2012
    Posts
    116
    Thanks
    0
    Thanked 21 Times in 12 Posts
    thankkkkkkkk

  6. #66
    Senior Member
    Join Date
    Sep 2014
    Posts
    2,446
    Thanks
    2
    Thanked 0 Times in 0 Posts
    ѧжʹͧ ͺسҡѺ

  7. #67
    Senior Member
    Join Date
    Jun 2014
    Posts
    876
    Thanks
    0
    Thanked 284 Times in 211 Posts
    ͺسҡ

  8. #68
    Member
    Join Date
    Nov 2012
    Posts
    54
    Thanks
    0
    Thanked 4 Times in 3 Posts

    Angry [չ] [HD 1080p] ˴ : A Better Tomorrow (1986) : [ҡµ鹩Ѻ]



    ˴ : A Better Tomorrow (1986) ӹҹ˹ѧѹ觴ѧͧ վ˭ҧ ا Թ ҧ §µ鹩Ѻ





    General
    Unique ID : 252716839575736759593707638992825226298 (0xBE1F7E2D512328CAB49B9823AF94143A)
    Complete name : C:\˴Ǵ.mkv
    Format : Matroska
    Format version : Version 4 / Version 2
    File size : 5.82 GiB
    Duration : 1h 35mn
    Overall bit rate : 8 741 Kbps
    Encoded date : UTC 2017-08-19 20:13:51
    Writing application : mkvmerge v6.3.0 ('You can't stop me!') built on Jun 28 2013 20:09:41
    Writing library : libebml v1.3.0 + libmatroska v1.4.0

    Video #1
    ID : 1
    Format : AVC
    Format/Info : Advanced Video Codec
    Format profile : [email protected]
    Format settings, CABAC : Yes
    Format settings, ReFrames : 4 frames
    Codec ID : V_MPEG4/ISO/AVC
    Duration : 1h 35mn
    Bit rate : 8 356 Kbps
    Width : 1 920 pixels
    Height : 1 080 pixels
    Display aspect ratio : 16:9
    Frame rate mode : Constant
    Frame rate : 23.976 fps
    Color space : YUV
    Chroma subsampling : 4:2:0
    Bit depth : 8 bits
    Scan type : Progressive
    Bits/(Pixel*Frame) : 0.168
    Stream size : 5.44 GiB (94%)
    Writing library : x264 core 114 r1913 5fd3dce
    Encoding settings : cabac=1 / ref=4 / deblock=1:0:0 / analyse=0x3:0x133 / me=umh / subme=7 / psy=1 / psy_rd=1.00:0.00 / mixed_ref=1 / me_range=16 / chroma_me=1 / trellis=1 / 8x8dct=1 / cqm=0 / deadzone=21,11 / fast_pskip=1 / chroma_qp_offset=-2 / threads=12 / sliced_threads=0 / nr=0 / decimate=1 / interlaced=0 / constrained_intra=0 / bframes=3 / b_pyramid=2 / b_adapt=2 / b_bias=0 / direct=3 / weightb=1 / open_gop=0 / weightp=2 / keyint=250 / keyint_min=23 / scenecut=40 / intra_refresh=0 / rc=2pass / mbtree=0 / bitrate=8356 / ratetol=1.0 / qcomp=0.60 / qpmin=0 / qpmax=69 / qpstep=4 / cplxblur=20.0 / qblur=0.5 / ip_ratio=1.40 / pb_ratio=1.30 / aq=1:1.00
    Language : English
    Default : Yes
    Forced : No

    Audio #2
    ID : 2
    Format : AC-3
    Format/Info : Audio Coding 3
    Mode extension : CM (complete main)
    Format settings, Endianness : Big
    Codec ID : A_AC3
    Duration : 1h 35mn
    Bit rate mode : Constant
    Bit rate : 384 Kbps
    Channel count : 2 channels
    Channel positions : Front: L R
    Sampling rate : 48.0 KHz
    Bit depth : 16 bits
    Compression mode : Lossy
    Delay relative to video : 100ms
    Stream size : 262 MiB (4%)
    Title : AC3
    Language : Thai
    Default : Yes
    Forced : No

    http://cornfile.com/uc7emb0n18b3

  9. #69
    Senior Member
    Join Date
    May 2012
    Posts
    223
    Thanks
    0
    Thanked 0 Times in 0 Posts
    شʹѺ ҡҡ§͡ҡѹ §Ҫ٪ҵ Թ 觷ҡԹ վҡ 2 Ѻҡ 3 §ç¤Ѻ ʹ¤Ѻ

  10. #70
    Senior Member
    Join Date
    May 2012
    Posts
    223
    Thanks
    0
    Thanked 0 Times in 0 Posts
    ŴѺ

Thread Information

Users Browsing this Thread

There are currently 1 users browsing this thread. (0 members and 1 guests)

     

Posting Permissions

  • You may not post new threads
  • You may not post replies
  • You may not post attachments
  • You may not edit your posts