+ Reply to Thread
Page 1 of 22 1 2 3 11 ... LastLast
Results 1 to 10 of 212
  1. #1
    Member
    Join Date
    Nov 2012
    Posts
    96
    Thanks
    0
    Thanked 4 Times in 3 Posts

    Angry [չ] [Super Mini-HD] ...͡ The Haunted Cop Shop II (1988) : [§ 2.0 Թ]



    (The Haunted Cop Shop II) ...͡ ׹ǧس˹ 2 ա 1 ˹ѧշ褹ؤ 90 ¡ѹҧ ӷѡʴ ҧ Ԥ ҡաѴҡѴͺ
    §¤Ԥҡ Թ ( O Sarakham)

    Ҿҡ˹ѧ
    [IMG][/IMG]


    General
    Unique ID : 246466329793428077863593792934985448553 (0xB96BB04070005F50AFF2ED40942DBC69)
    Complete name : ...͡.mkv
    Format : Matroska
    Format version : Version 4 / Version 2
    File size : 628 MiB
    Duration : 1h 29mn
    Overall bit rate : 979 Kbps
    Encoded date : UTC 2017-04-07 08:19:06
    DURATION : 01:29:34.800000000
    NUMBER_OF_FRAMES : 134370
    NUMBER_OF_BYTES : 592078526
    Video #2
    ID : 2
    Format : AVC
    Format/Info : Advanced Video Codec
    Format profile : [email protected]
    Format settings, CABAC : Yes
    Format settings, ReFrames : 4 frames
    Codec ID : V_MPEG4/ISO/AVC
    Duration : 1h 29mn
    Width : 1 280 pixels
    Height : 688 pixels
    Display aspect ratio : 1.85:1
    Frame rate mode : Constant
    Frame rate : 25.000 fps
    Color space : YUV
    Chroma subsampling : 4:2:0
    Bit depth : 8 bits
    Scan type : Progressive
    Writing library : Provided by x264 :: H.264/MPEG-4 AVC codec -V 1.6.07
    Default : Yes
    Forced : No
    Color primaries : BT.601 PAL
    Transfer characteristics : BT.709
    Matrix coefficients : BT.601
    Audio #1
    ID : 1
    Format : AAC
    Format/Info : Advanced Audio Codec
    Format profile : LC
    Codec ID : A_AAC
    Duration : 1h 29mn
    Channel count : 2 channels
    Channel positions : Front: L R
    Sampling rate : 44.1 KHz
    Compression mode : Lossy
    Default : Yes
    Forced : No

    http://cornfile.com/wjarn2siq0kw

    * ˹ѧҨѾʵ¹ФѺ


    Last edited by galamung; 07-16-2017 at 07:40 AM. Reason: ˹ѧͧ 10

  2. The Following User Says Thank You to galamung For This Useful Post:

    inutero (04-19-2017)

  3. #2
    Senior Member
    Join Date
    Sep 2014
    Posts
    2,886
    Thanks
    2
    Thanked 0 Times in 0 Posts
    Thanks a bunch.
    ˹ѧչŧաФѺ ͺسҡ¤Ѻ
    Last edited by yutsyyy; 04-10-2017 at 08:33 PM.

  4. #3
    Member
    Join Date
    Nov 2012
    Posts
    96
    Thanks
    0
    Thanked 4 Times in 3 Posts

    Angry [չ] [dvdrip] Һǵͧ˹ The Haunted Cop Shop (1987) : [§ 5.1 AC 3,DTS]



    (The Haunted Cop Shop 1987) Һǵͧ˹ ׹ǧس˹ ˹ѧҤ ...͡ ѡʴش ҧ Ԥ § 5.1 ͡ AC DTS

    [IMG][/IMG]

    D:\Һǵͧ˹.mkv
    General
    Unique ID : 245878015363265820932213447272511752031 (0xB8FA621C5FE4F8A1982774B2B9E6C75F)
    Complete name : D:\Һǵͧ˹.mkv
    Format : Matroska
    Format version : Version 4 / Version 2
    File size : 2.35 GiB
    Duration : 1h 30mn
    Overall bit rate : 3 701 Kbps
    Encoded date : UTC 2017-04-12 22:04:20
    Writing application : mkvmerge v9.4.0 ('Knurl') 64bit
    Writing library : libebml v1.3.4 + libmatroska v1.4.5
    DURATION : 01:30:51.680000000
    NUMBER_OF_FRAMES : 136292
    NUMBER_OF_BYTES : 1703301666
    _STATISTICS_WRITING_APP : mkvmerge v9.4.0 ('Knurl') 64bit
    _STATISTICS_WRITING_DATE_UTC : 2017-04-12 22:04:20
    _STATISTICS_TAGS : BPS DURATION NUMBER_OF_FRAMES NUMBER_OF_BYTES
    Video #3
    ID : 3
    Format : AVC
    Format/Info : Advanced Video Codec
    Format profile : [email protected]
    Format settings, CABAC : Yes
    Format settings, ReFrames : 3 frames
    Format settings, GOP : M=4, N=25
    Codec ID : V_MPEG4/ISO/AVC
    Duration : 1h 30mn
    Bit rate : 2 425 Kbps
    Width : 720 pixels
    Height : 576 pixels
    Display aspect ratio : 1.85:1
    Frame rate mode : Constant
    Frame rate : 25.000 fps
    Standard : PAL
    Color space : YUV
    Chroma subsampling : 4:2:0
    Bit depth : 8 bits
    Scan type : Interlaced
    Scan order : Bottom Field First
    Bits/(Pixel*Frame) : 0.234
    Stream size : 1.54 GiB (66%)
    Language : English
    Default : Yes
    Forced : No
    DURATION : 01:30:35.008000000
    NUMBER_OF_FRAMES : 509532
    NUMBER_OF_BYTES : 512589192
    _STATISTICS_WRITING_APP : mkvmerge v9.4.0 ('Knurl') 64bit
    _STATISTICS_WRITING_DATE_UTC : 2017-04-12 22:04:20
    _STATISTICS_TAGS : BPS DURATION NUMBER_OF_FRAMES NUMBER_OF_BYTES
    Color primaries : BT.601 PAL
    Transfer characteristics : BT.470 System B, BT.470 System G
    Matrix coefficients : BT.601
    Audio #1
    ID : 1
    Format : AC-3
    Format/Info : Audio Coding 3
    Mode extension : CM (complete main)
    Format settings, Endianness : Big
    Codec ID : A_AC3
    Duration : 1h 30mn
    Bit rate mode : Constant
    Bit rate : 448 Kbps
    Channel count : 6 channels
    Channel positions : Front: L C R, Side: L R, LFE
    Sampling rate : 48.0 KHz
    Bit depth : 16 bits
    Compression mode : Lossy
    Delay relative to video : -300ms
    Stream size : 291 MiB (12%)
    Title : Surround 5.1
    Language : Thai
    Default : Yes
    Forced : No
    Audio #2
    ID : 2
    Format : DTS
    Format/Info : Digital Theater Systems
    Mode : 16
    Format settings, Endianness : Big
    Codec ID : A_DTS
    Duration : 1h 30mn
    Bit rate mode : Constant
    Bit rate : 755 Kbps
    Channel count : 6 channels
    Channel positions : Front: L C R, Side: L R, LFE
    Sampling rate : 48.0 KHz
    Bit depth : 24 bits
    Compression mode : Lossy
    Delay relative to video : -300ms
    Stream size : 490 MiB (20%)
    Title : Surround 5.1
    Language : Thai
    Default : No
    Forced : No
    DURATION : 01:30:35.008000000
    NUMBER_OF_FRAMES : 169844
    NUMBER_OF_BYTES : 304360448
    _STATISTICS_WRITING_APP : mkvmerge v9.4.0 ('Knurl') 64bit
    _STATISTICS_WRITING_DATE_UTC : 2017-04-12 22:04:20
    _STATISTICS_TAGS : BPS DURATION NUMBER_OF_FRAMES NUMBER_OF_BYTES


    http://cornfile.com/3wtby79hnars
    1080p 4.1 gb
    http://cornfile.com/rnyiy52uhyff
    Last edited by galamung; 10-07-2018 at 08:05 AM.

  5. #4
    Senior Member
    Join Date
    May 2012
    Posts
    220
    Thanks
    0
    Thanked 0 Times in 0 Posts
    ͺѺ Ҥ 2 鹩Ѻ§ç·ҡԹ ҡ 鹷ǹͧѺ ͺسѺ

  6. #5
    Member
    Join Date
    Nov 2012
    Posts
    96
    Thanks
    0
    Thanked 4 Times in 3 Posts

    Angry [չ] [Super Mini-HD] ˴ 蹷 2 : Return to a Better Tomorrow (1994) : [§ VCD 2.0 Թյ鹩Ѻ : Ѻչѧ]


    Ӣǹѹ ¹ ǪԧԹ ͧ §ҡشҨҡԹ


    ˴ 蹷 2.mp4
    General
    Complete name : D:\˴ 蹷 2.mp4
    Format : MPEG-4
    Format profile : Base Media / Version 2
    File size : 2.29 GiB
    Duration : 1h 38mn
    Overall bit rate mode : Variable
    Overall bit rate : 3 338 Kbps
    Encoded date : UTC 2017-04-17 00:28:15
    Tagged date : UTC 2017-04-17 00:29:54
    TIM : 00:00:00:00
    TSC : 25
    TSZ : 1
    Video #1
    ID : 1
    Format : AVC
    Format/Info : Advanced Video Codec
    Format profile : [email protected]
    Format settings, CABAC : Yes
    Format settings, ReFrames : 3 frames
    Codec ID : avc1
    Codec ID/Info : Advanced Video Coding
    Duration : 1h 38mn
    Bit rate : 3 145 Kbps
    Width : 1 078 pixels
    Height : 606 pixels
    Display aspect ratio : 16:9
    Frame rate mode : Constant
    Frame rate : 25.000 fps
    Standard : PAL
    Color space : YUV
    Chroma subsampling : 4:2:0
    Bit depth : 8 bits
    Scan type : Progressive
    Bits/(Pixel*Frame) : 0.193
    Stream size : 2.15 GiB (94%)
    Language : English
    Encoded date : UTC 2017-04-17 00:28:15
    Tagged date : UTC 2017-04-17 00:28:15
    Color primaries : BT.709
    Transfer characteristics : BT.709
    Matrix coefficients : BT.709
    Audio #2
    ID : 2
    Format : AAC
    Format/Info : Advanced Audio Codec
    Format profile : LC
    Codec ID : 40
    Duration : 1h 38mn
    Source duration : 1h 38mn
    Bit rate mode : Variable
    Bit rate : 192 Kbps
    Maximum bit rate : 313 Kbps
    Channel count : 2 channels
    Channel positions : Front: L R
    Sampling rate : 48.0 KHz
    Compression mode : Lossy
    Delay relative to video : 40ms
    Stream size : 133 MiB (6%)
    Source stream size : 133 MiB (6%)
    Language : Thai VCD 2.0

    http://cornfile.com/hy21msp20h9m
    Last edited by galamung; 12-18-2017 at 02:23 PM.

  7. #6
    Member
    Join Date
    Nov 2012
    Posts
    96
    Thanks
    0
    Thanked 4 Times in 3 Posts

    Angry [չ] [DVDRIP Modified] ͻҺաѴ : Magic Cop (1990) : [§ VCD 2.0 : Ѻչѧ]



    Magic Cop (1990) ͻҺաѴ Ҹ 觼 ա 1 ˹ѧըչسҾӷ ҨҺ Թԧ Թ¹

    [IMG][/IMG]

    ͻҺաѴ.mp4
    General
    Complete name : D:\ͻҺաѴ.mp4
    Format : MPEG-4
    Format profile : Base Media / Version 2
    Codec ID : mp42
    File size : 1.90 GiB
    Duration : 1h 25mn
    Overall bit rate mode : Variable
    Overall bit rate : 3 190 Kbps
    Encoded date : UTC 2017-04-11 21:17:05
    Tagged date : UTC 2017-04-11 21:17:05
    Video #1
    ID : 1
    Format : AVC
    Format/Info : Advanced Video Codec
    Format profile : [email protected]
    Format settings, CABAC : Yes
    Format settings, ReFrames : 3 frames
    Codec ID : avc1
    Codec ID/Info : Advanced Video Coding
    Duration : 1h 25mn
    Bit rate : 2 997 Kbps
    Width : 720 pixels
    Height : 576 pixels
    Display aspect ratio : 1.85:1
    Frame rate mode : Constant
    Frame rate : 25.000 fps
    Standard : PAL
    Color space : YUV
    Chroma subsampling : 4:2:0
    Bit depth : 8 bits
    Scan type : Interlaced
    Scan order : Bottom Field First
    Bits/(Pixel*Frame) : 0.289
    Stream size : 1.79 GiB (94%)
    Language : English
    Encoded date : UTC 2017-04-11 21:17:05
    Tagged date : UTC 2017-04-11 21:17:05
    Color primaries : BT.601 PAL
    Transfer characteristics : BT.470 System B, BT.470 System G
    Matrix coefficients : BT.601
    Audio #2
    ID : 2
    Format : AAC
    Format/Info : Advanced Audio Codec
    Format profile : LC
    Codec ID : 40
    Duration : 1h 25mn
    Source duration : 1h 25mn
    Bit rate mode : Variable
    Bit rate : 192 Kbps
    Maximum bit rate : 297 Kbps
    Channel count : 2 channels
    Channel positions : Front: L R
    Sampling rate : 48.0 KHz
    Compression mode : Lossy
    Delay relative to video : 40ms
    Stream size : 116 MiB (6%)
    Source stream size : 116 MiB (6%)
    Language : Thai VCD 2.0
    Encoded date : UTC 2017-04-11 21:17:05
    Tagged date : UTC 2017-04-11 21:17:05


    http://cornfile.com/y7pud3d3fgbx

    HDTV 1080 2.8 GB
    http://cornfile.com/h8jhn7s8zmwx
    Last edited by galamung; 01-14-2018 at 05:41 AM.

  8. #7
    Senior Member
    Join Date
    Sep 2014
    Posts
    2,886
    Thanks
    2
    Thanked 0 Times in 0 Posts
    ͺسҡ¤Ѻ ա

  9. #8
    Senior Member
    Join Date
    Jun 2014
    Posts
    684
    Thanks
    0
    Thanked 0 Times in 0 Posts
    ͺسѺ

  10. #9
    Senior Member
    Join Date
    May 2012
    Posts
    220
    Thanks
    0
    Thanked 0 Times in 0 Posts
    ͺسѺ ͺǼաѴѺ

  11. #10
    Member
    Join Date
    Nov 2012
    Posts
    96
    Thanks
    0
    Thanked 4 Times in 3 Posts

    Angry [չ] [Super Mini-HD] ҹླ ѡҹǹѹ : The Lovers (1994) : [§ 2.0 Թյ鹩Ѻ,Ѻչѧ]



    ҹླ ѡҹǹѹ The Lovers (1994) ӹҹѡѹ蹢ͧ§ҹ͡Ѻԧ դ˹ѧẺͧ ѡʴʢͧѡʴ ҧ˹ ŧ




    D:\ҹླ.mp4
    General
    Complete name : D:\ҹླ.mp4
    Format : MPEG-4
    Format profile : Base Media / Version 2
    Codec ID : mp42
    File size : 1.79 GiB
    Duration : 1h 43mn
    Overall bit rate mode : Variable
    Overall bit rate : 2 480 Kbps
    Encoded date : UTC 2017-04-13 20:55:39
    Tagged date : UTC 2017-04-13 20:57:15
    TIM : 00:00:00:00
    TSC : 24000
    TSZ : 1001
    Video #1
    ID : 1
    Format : AVC
    Format/Info : Advanced Video Codec
    Format profile : [email protected]
    Format settings, CABAC : Yes
    Format settings, ReFrames : 3 frames
    Codec ID : avc1
    Codec ID/Info : Advanced Video Coding
    Duration : 1h 43mn
    Bit rate : 2 287 Kbps
    Width : 1 024 pixels
    Height : 576 pixels
    Display aspect ratio : 16:9
    Frame rate mode : Variable
    Frame rate : 23.976 fps
    Minimum frame rate : 23.976 fps
    Maximum frame rate : 24.000 fps
    Standard : PAL
    Color space : YUV
    Chroma subsampling : 4:2:0
    Bit depth : 8 bits
    Scan type : Progressive
    Bits/(Pixel*Frame) : 0.162
    Stream size : 1.65 GiB (92%)
    Language : English
    Encoded date : UTC 2017-04-13 20:55:39
    Tagged date : UTC 2017-04-13 20:55:39
    Color primaries : BT.601 PAL
    Transfer characteristics : BT.470 System B, BT.470 System G
    Matrix coefficients : BT.601
    Audio #2
    ID : 2
    Format : AAC
    Format/Info : Advanced Audio Codec
    Format profile : LC
    Codec ID : 40
    Duration : 1h 43mn
    Source duration : 1h 43mn
    Bit rate mode : Variable
    Bit rate : 192 Kbps
    Maximum bit rate : 299 Kbps
    Channel count : 2 channels
    Channel positions : Front: L R
    Sampling rate : 48.0 KHz
    Compression mode : Lossy
    Delay relative to video : 42ms
    Stream size : 140 MiB (8%)
    Source stream size : 140 MiB (8%)
    Language : Thai VCD
    Encoded date : UTC 2017-04-13 20:55:39
    Tagged date : UTC 2017-04-13 20:55:39


    http://cornfile.com/hx1qinf0u6cw
    Last edited by galamung; 12-18-2017 at 02:07 PM.

Thread Information

Users Browsing this Thread

There are currently 1 users browsing this thread. (0 members and 1 guests)

     

Posting Permissions

  • You may not post new threads
  • You may not post replies
  • You may not post attachments
  • You may not edit your posts