+ Reply to Thread
Page 22 of 22 FirstFirst ... 12 20 21 22
Results 211 to 213 of 213
  1. #211
    Member
    Join Date
    Nov 2012
    Posts
    96
    Thanks
    0
    Thanked 4 Times in 3 Posts

    Angry [չ] [HD 1080p] ѧ硵ѹ : Iron Monkey (1993) : [§͡鹩Ѻ ac3 2.0]



    [IMG][/IMG]



    General
    Complete name : D:\iron.monkey.1993.remastered.1080p.mkv
    Format : Matroska
    Format version : Version 4 / Version 2
    File size : 8.50 GiB
    Duration : 1h 30mn
    Overall bit rate : 13.5 Mbps
    Encoded date : UTC 2018-10-21 22:40:36
    Writing application : mkvmerge v14.0.0 ('Flow') 64bit
    Writing library : libebml v1.3.4 + libmatroska v1.4.5
    DURATION : 01:30:20.096000000
    NUMBER_OF_FRAMES : 169378
    NUMBER_OF_BYTES : 260164608
    _STATISTICS_WRITING_APP : mkvmerge v14.0.0 ('Flow') 64bit
    _STATISTICS_WRITING_DATE_UTC : 2018-10-21 22:40:36
    _STATISTICS_TAGS : BPS DURATION NUMBER_OF_FRAMES NUMBER_OF_BYTES

    Video #1
    ID : 1
    Format : AVC
    Format/Info : Advanced Video Codec
    Format profile : [email protected]
    Format settings, CABAC : Yes
    Format settings, ReFrames : 4 frames
    Codec ID : V_MPEG4/ISO/AVC
    Duration : 1h 30mn
    Bit rate : 12.3 Mbps
    Width : 1 920 pixels
    Height : 1 040 pixels
    Display aspect ratio : 1.85:1
    Frame rate mode : Constant
    Frame rate : 23.976 fps
    Color space : YUV
    Chroma subsampling : 4:2:0
    Bit depth : 8 bits
    Scan type : Progressive
    Bits/(Pixel*Frame) : 0.257
    Stream size : 7.61 GiB (89%)
    Writing library : x264 core 155 r2901 7d0ff22
    Encoding settings : cabac=1 / ref=4 / deblock=1:-3:-3 / analyse=0x3:0x133 / me=umh / subme=9 / psy=1 / psy_rd=1.00:0.00 / mixed_ref=1 / me_range=16 / chroma_me=1 / trellis=2 / 8x8dct=1 / cqm=0 / deadzone=21,11 / fast_pskip=0 / chroma_qp_offset=-2 / threads=32 / lookahead_threads=2 / sliced_threads=0 / nr=0 / decimate=1 / interlaced=0 / bluray_compat=0 / constrained_intra=0 / bframes=3 / b_pyramid=2 / b_adapt=1 / b_bias=0 / direct=3 / weightb=1 / open_gop=0 / weightp=2 / keyint=240 / keyint_min=24 / scenecut=40 / intra_refresh=0 / rc_lookahead=50 / rc=2pass / mbtree=1 / bitrate=12324 / ratetol=1.0 / qcomp=0.60 / qpmin=0 / qpmax=69 / qpstep=4 / cplxblur=20.0 / qblur=0.5 / ip_ratio=1.40 / aq=1:1.00
    Language : Chinese
    Default : Yes
    Forced : No
    DURATION : 01:30:20.082000000
    NUMBER_OF_FRAMES : 129952
    NUMBER_OF_BYTES : 8348062312
    _STATISTICS_WRITING_APP : mkvmerge v14.0.0 ('Flow') 64bit
    _STATISTICS_WRITING_DATE_UTC : 2018-10-21 22:40:36
    _STATISTICS_TAGS : BPS DURATION NUMBER_OF_FRAMES NUMBER_OF_BYTES

    Audio #2
    ID : 2
    Format : DTS
    Format/Info : Digital Theater Systems
    Mode : 16
    Format settings, Endianness : Big
    Codec ID : A_DTS
    Duration : 1h 30mn
    Bit rate mode : Constant
    Bit rate : 768 Kbps
    Channel count : 6 channels
    Channel positions : Front: L C R, Side: L R, LFE
    Sampling rate : 48.0 KHz
    Bit depth : 24 bits
    Compression mode : Lossy
    Stream size : 496 MiB (6%)
    Language : Chinese
    Default : Yes
    Forced : No

    Audio #5
    ID : 5
    Format : AC-3
    Format/Info : Audio Coding 3
    Mode extension : CM (complete main)
    Format settings, Endianness : Big
    Codec ID : A_AC3
    Duration : 1h 30mn
    Bit rate mode : Constant
    Bit rate : 384 Kbps
    Channel count : 2 channels
    Channel positions : Front: L R
    Sampling rate : 48.0 KHz
    Bit depth : 16 bits
    Compression mode : Lossy
    Stream size : 248 MiB (3%)
    Title : §͡ ac3 2.0
    Language : Thai
    Default : No
    Forced : No

    Text #3
    ID : 3
    Format : UTF-8
    Codec ID : S_TEXT/UTF8
    Codec ID/Info : UTF-8 Plain Text
    Title : English
    Language : English
    Default : Yes
    Forced : Yes

    Text #4
    ID : 4
    Format : UTF-8
    Codec ID : S_TEXT/UTF8
    Codec ID/Info : UTF-8 Plain Text
    Title : English SDH
    Language : English
    Default : No
    Forced : No

    Menu
    00:00:00.000 : en:00:00:00.000
    00:07:54.724 : en:00:07:54.724
    00:14:17.774 : en:00:14:17.774
    00:26:11.069 : en:00:26:11.069
    00:34:10.340 : en:00:34:10.340
    00:41:40.540 : en:00:41:40.540
    00:48:33.911 : en:00:48:33.911
    00:53:44.304 : en:00:53:44.304
    00:58:55.657 : en:00:58:55.657
    01:08:08.209 : en:01:08:08.209
    01:13:50.760 : en:01:13:50.760
    01:28:03.111 : en:01:28:03.111

    ͧشҹѡѡ СѺա
    ͺسԴФѺ


    1080P 4.5 GB
    http://cornfile.com/9yedpbmnbdpb
    1080P 8.5 GB
    http://cornfile.com/zuevpiwxgkek

  2. #212
    Senior Member
    Join Date
    Sep 2013
    Posts
    1,221
    Thanks
    0
    Thanked 1 Time in 1 Post
    ѡ

  3. #213
    Senior Member
    Join Date
    May 2012
    Posts
    220
    Thanks
    0
    Thanked 0 Times in 0 Posts
    ͤѺ ͼŧҹ

Thread Information

Users Browsing this Thread

There are currently 1 users browsing this thread. (0 members and 1 guests)

     

Posting Permissions

  • You may not post new threads
  • You may not post replies
  • You may not post attachments
  • You may not edit your posts