+ Reply to Thread
Page 11 of 11 FirstFirst ... 9 10 11
Results 101 to 105 of 105
  1. #101
    Member
    Join Date
    Nov 2012
    Posts
    50
    Thanks
    0
    Thanked 4 Times in 3 Posts

    Angry [չ] [HD 1080p] Ѻѧѧ : Forbidden City Cop (1996) : [ѹԵõ鹩Ѻ 2.0]

    cornfile.com


    [IMG][/IMG]


    General
    Complete name : C:\Forbidden City Cop.mkv
    Format : Matroska
    Format version : Version 4 / Version 2
    File size : 11.3 GiB
    Duration : 1h 28mn
    Overall bit rate : 18.2 Mbps
    Encoded date : UTC 2017-11-05 22:18:28
    Writing application : mkvmerge v14.0.0 ('Flow') 64bit
    Writing library : libebml v1.3.4 + libmatroska v1.4.5
    DURATION : 01:28:42.581000000
    NUMBER_OF_FRAMES : 249496
    NUMBER_OF_BYTES : 125995480

    Video #1
    ID : 1
    Format : AVC
    Format/Info : Advanced Video Codec
    Format profile : [email protected]
    Format settings, CABAC : Yes
    Format settings, ReFrames : 4 frames
    Codec ID : V_MPEG4/ISO/AVC
    Duration : 1h 28mn
    Nominal bit rate : 18.0 Mbps
    Width : 1 920 pixels
    Height : 1 080 pixels
    Display aspect ratio : 16:9
    Frame rate mode : Constant
    Frame rate : 24.000 fps
    Color space : YUV
    Chroma subsampling : 4:2:0
    Bit depth : 8 bits
    Scan type : Progressive
    Bits/(Pixel*Frame) : 0.362
    Writing library : x264 core 148 r2708 86b7198
    Language : Chinese
    Default : Yes
    Forced : No
    DURATION : 01:28:42.625000000
    NUMBER_OF_FRAMES : 127743
    NUMBER_OF_BYTES : 11976196381
    _STATISTICS_WRITING_APP : mkvmerge v14.0.0 ('Flow') 64bit
    _STATISTICS_WRITING_DATE_UTC : 2017-11-05 22:18:28
    _STATISTICS_TAGS : BPS DURATION NUMBER_OF_FRAMES NUMBER_OF_BYTES
    Color primaries : BT.709
    Transfer characteristics : BT.709
    Matrix coefficients : BT.709

    Audio #2
    ID : 2
    Format : AAC
    Format/Info : Advanced Audio Codec
    Format profile : LC
    Codec ID : A_AAC
    Duration : 1h 28mn
    Channel count : 2 channels
    Channel positions : Front: L R
    Sampling rate : 48.0 KHz
    Compression mode : Lossy
    Title : thai 2.0
    Language : Thai
    Default : Yes
    Forced : No


    1080p 11.3 gb
    http://cornfile.com/42035bd4y92n
    1080p 6.0 gb
    http://cornfile.com/rr939wss4fpl

  2. #102
    Member
    Join Date
    Jun 2014
    Posts
    40
    Thanks
    0
    Thanked 0 Times in 0 Posts
    ͺسѺ

  3. #103
    Senior Member
    Join Date
    Sep 2014
    Posts
    2,428
    Thanks
    2
    Thanked 0 Times in 0 Posts
    ͺسѺ

  4. #104
    Member
    Join Date
    Nov 2012
    Posts
    50
    Thanks
    0
    Thanked 4 Times in 3 Posts

    Angry [չ] [HD 720p] աѴҡѴͺ ͹ ѴѴ駵 : Vampire vs. Vampire (1989) : [§ ac3 2.0]



    աѴҡѴͺ ӴѺ 5 ѺҨաѴ Թԧ

    [IMG][/IMG]



    General
    Complete name : D:\աѴҡѴͺ 5.mkv
    Format : Matroska
    Format version : Version 4 / Version 2
    File size : 5.43 GiB
    Duration : 1h 27mn
    Overall bit rate : 8 885 Kbps
    Encoded date : UTC 2017-11-14 22:54:19
    Writing application : mkvmerge v14.0.0 ('Flow') 64bit
    Writing library : libebml v1.3.4 + libmatroska v1.4.5
    DURATION : 01:27:27.968000000
    NUMBER_OF_FRAMES : 163999
    NUMBER_OF_BYTES : 251902464

    Video #1
    ID : 1
    Format : AVC
    Format/Info : Advanced Video Codec
    Format profile : [email protected]
    Format settings, CABAC : Yes
    Format settings, ReFrames : 4 frames
    Codec ID : V_MPEG4/ISO/AVC
    Duration : 1h 27mn
    Bit rate : 8 500 Kbps
    Width : 1 280 pixels
    Height : 690 pixels
    Display aspect ratio : 1.85:1
    Frame rate mode : Constant
    Frame rate : 24.000 fps
    Color space : YUV
    Chroma subsampling : 4:2:0
    Bit depth : 8 bits
    Scan type : Progressive
    Bits/(Pixel*Frame) : 0.401
    Stream size : 5.09 GiB (94%)
    Language : Chinese
    Default : Yes
    Forced : No
    DURATION : 01:27:27.959000000
    NUMBER_OF_FRAMES : 125951
    NUMBER_OF_BYTES : 5575616863
    _STATISTICS_WRITING_APP : mkvmerge v14.0.0 ('Flow') 64bit
    _STATISTICS_WRITING_DATE_UTC : 2017-11-14 22:54:19
    _STATISTICS_TAGS : BPS DURATION NUMBER_OF_FRAMES NUMBER_OF_BYTES
    Color primaries : BT.709
    Transfer characteristics : BT.709
    Matrix coefficients : BT.709

    Audio #2
    ID : 2
    Format : AC-3
    Format/Info : Audio Coding 3
    Mode extension : CM (complete main)
    Format settings, Endianness : Big
    Codec ID : A_AC3
    Duration : 1h 27mn
    Bit rate mode : Constant
    Bit rate : 384 Kbps
    Channel count : 2 channels
    Channel positions : Front: L R
    Sampling rate : 48.0 KHz
    Bit depth : 16 bits
    Compression mode : Lossy
    Stream size : 240 MiB (4%)
    Title : ac3 2.0
    Language : Thai
    Default : Yes
    Forced : No

    http://cornfile.com/gw4p5orueaau

  5. #105
    Senior Member
    Join Date
    Sep 2014
    Posts
    2,428
    Thanks
    2
    Thanked 0 Times in 0 Posts
    ͺسҡѺҤʹء

Thread Information

Users Browsing this Thread

There are currently 1 users browsing this thread. (0 members and 1 guests)

     

Posting Permissions

  • You may not post new threads
  • You may not post replies
  • You may not post attachments
  • You may not edit your posts