+ Reply to Thread
Results 1 to 3 of 3
  1. #1
    Administrators Duckload.us's Avatar
    Join Date
    Dec 2010
    Posts
    83,078
    Thanks
    9
    Thanked 88,046 Times in 42,079 Posts

    Angry [ฝรั่ง]-The Ghost and the Darkness (1996) มัจจุราชมืดโหดมฤตยู-Blu-ray.AC-3.1080p -[พากย์ไทย 5.1 + อังกฤษ 5.1] - [บรรยายไทย PGS + อังกฤษ] เสียง,ซับความคมชัดสูง DVD มาสเตอร์

    cornfile.com



    ในปี ค.ศ. 1898 จักรวรรดิอังกฤษกำลังแผ่อำนาจไปทั่วดินแดนแอฟริกา ผู้พันจอห์น เฮนรี่ แพ็ตเตอร์สัน (วัล คิลเมอร์) นายทหารหนุ่มชาวไอริช-อังกฤษผู้จบวิศวกรรมศาสตร์ ถูกส่งตัวไปประจำที่ซาโว เคนยา เพื่อคุมการสร้างทางรถไฟ โดยกรรมกรหลากหลายเชื้อชาติและความเชื่อ และทาสชาวพื้นเมือง เมื่อแรกไปถึง จอห์นตื่นตาตื่นใจกับธรรมชาติของสัตว์ป่าที่แอฟริกา โดยมี ซามูแอล (จอห์น คานิ) ล่ามชาวพื้นเมืองเป็นผู้ช่วยประสานงาน

    ต่อมาไม่นาน เกิดมีเหตุสัตว์ป่าบุกจู่โจมจีค่ายที่พักคนงานและลาก คนงานไปกิน จอห์นอาสาจะจับตายให้ได้ แต่ก็ไม่สำเร็จ เหตุการณ์บานปลายไปเรื่อย ๆ ชาวพื้นเมืองแตกตื่นโดยเชื่อว่า มันคือ "มาร" (Ghost) และ "ทมิฬ" (Darkness) ที่ถูกส่งมา ไม่มีใครสามารถหยุดยั้งมันได้


    General
    Unique ID : 177381215019260147644295126128326600601 (0x8572611D96B7EBEF85F5D1C0D447E799)
    Complete name : H:The.Ghost.and.the.Darkness.1996.1080p.BluRay.x26 4.DD5.1-วิถีคนพาล.mkv
    Format : Matroska
    Format version : Version 4 / Version 2
    File size : 13.8 GiB
    Duration : 1 h 50 min
    Overall bit rate : 18.0 Mb/s
    Movie name : The.Ghost.and.the.Darkness.1996-วิถีคนพาล
    Encoded date : UTC 2017-04-24 20:48:41
    Writing application : mkvmerge v10.0.0 ( To Drown In You ) 64bit
    Writing library : libebml v1.3.4 + libmatroska v1.4.5

    Video
    ID : 1
    Format : AVC
    Format/Info : Advanced Video Codec
    Format profile : [email protected]
    Format settings, CABAC : Yes
    Format settings, ReFrames : 4 frames
    Codec ID : V_MPEG4/ISO/AVC
    Duration : 1 h 49 min
    Bit rate : 16.9 Mb/s
    Width : 1 920 pixels
    Height : 920 pixels
    Display aspect ratio : 2.087
    Frame rate mode : Constant
    Frame rate : 23.976 (24000/1001) FPS
    Color space : YUV
    Chroma subsampling : 4:2:0
    Bit depth : 8 bits
    Scan type : Progressive
    Bits/(Pixel*Frame) : 0.400
    Stream size : 13.0 GiB (94%)
    Title : x264 @ 16.6 Mbps
    Writing library : x264 core 146 r2538 121396c
    Encoding settings : cabac=1 / ref=4 / deblock=1:-3:-3 / analyse=0x3:0x113 / me=umh / subme=9 / psy=1 / psy_rd=1.00:0.15 / mixed_ref=1 / me_range=32 / chroma_me=1 / trellis=1 / 8x8dct=1 / cqm=0 / deadzone=21,11 / fast_pskip=0 / chroma_qp_offset=-3 / threads=6 / lookahead_threads=1 / sliced_threads=0 / nr=0 / decimate=1 / interlaced=0 / bluray_compat=0 / constrained_intra=0 / bframes=7 / b_pyramid=2 / b_adapt=2 / b_bias=0 / direct=1 / weightb=1 / open_gop=0 / weightp=2 / keyint=230 / keyint_min=23 / scenecut=40 / intra_refresh=0 / rc_lookahead=40 / rc=crf / mbtree=0 / crf=20.6 / qcomp=0.60 / qpmin=0 / qpmax=69 / qpstep=4 / vbv_maxrate=50000 / vbv_bufsize=62500 / crf_max=0.0 / nal_hrd=none / filler=0 / ip_ratio=1.40 / pb_ratio=1.30 / aq=1:1.00
    Language : English
    Default : Yes
    Forced : No

    Audio #1
    ID : 2
    Format : AC-3
    Format/Info : Audio Coding 3
    Format settings, Endianness : Big
    Codec ID : A_AC3
    Duration : 1 h 49 min
    Bit rate mode : Constant
    Bit rate : 448 kb/s
    Channel(s) : 6 channels
    Channel positions : Front: L C R, Side: L R, LFE
    Sampling rate : 48.0 kHz
    Frame rate : 31.250 FPS (1536 spf)
    Bit depth : 16 bits
    Compression mode : Lossy
    Delay relative to video : 5 s 950 ms
    Stream size : 352 MiB (2%)
    Title : Thai AC3 5.1
    Language : Thai
    Service kind : Complete Main
    Default : Yes
    Forced : Yes

    Audio #2
    ID : 3
    Format : AC-3
    Format/Info : Audio Coding 3
    Format settings, Endianness : Big
    Codec ID : A_AC3
    Duration : 1 h 49 min
    Bit rate mode : Constant
    Bit rate : 384 kb/s
    Channel(s) : 6 channels
    Channel positions : Front: L C R, Side: L R, LFE
    Sampling rate : 48.0 kHz
    Frame rate : 31.250 FPS (1536 spf)
    Bit depth : 16 bits
    Compression mode : Lossy
    Stream size : 302 MiB (2%)
    Title : AC3 384 Kbps
    Language : English
    Service kind : Complete Main
    Default : No
    Forced : No

    Audio #3
    ID : 4
    Format : AC-3
    Format/Info : Audio Coding 3
    Mode : Dolby Digital
    Format settings, Endianness : Big
    Codec ID : A_AC3
    Duration : 1 h 49 min
    Bit rate mode : Constant
    Bit rate : 192 kb/s
    Channel(s) : 2 channels
    Channel positions : Front: L R
    Sampling rate : 48.0 kHz
    Frame rate : 31.250 FPS (1536 spf)
    Bit depth : 16 bits
    Compression mode : Lossy
    Delay relative to video : 5 s 950 ms
    Stream size : 151 MiB (1%)
    Title : Thai Stereo
    Language : Thai
    Service kind : Complete Main
    Default : No
    Forced : No

    Text #1
    ID : 5
    Format : VobSub
    Muxing mode : zlib
    Codec ID : S_VOBSUB
    Codec ID/Info : Picture based subtitle format used on DVDs
    Duration : 1 h 41 min
    Bit rate : 1 359 b/s
    Count of elements : 574
    Stream size : 1 015 KiB (0%)
    Title : TH 480p DVD Master
    Language : Thai
    Default : No
    Forced : No

    Text #2
    ID : 6
    Format : VobSub
    Muxing mode : zlib
    Codec ID : S_VOBSUB
    Codec ID/Info : Picture based subtitle format used on DVDs
    Duration : 1 h 41 min
    Bit rate : 2 568 b/s
    Count of elements : 574
    Stream size : 1.87 MiB (0%)
    Title : TH 720p AS
    Language : Thai
    Default : No
    Forced : No

    Text #3
    ID : 7
    Format : VobSub
    Muxing mode : zlib
    Codec ID : S_VOBSUB
    Codec ID/Info : Picture based subtitle format used on DVDs
    Duration : 1 h 41 min
    Bit rate : 4 286 b/s
    Count of elements : 574
    Stream size : 3.13 MiB (0%)
    Title : TH 1080p AS
    Language : Thai
    Default : Yes
    Forced : Yes

    Text #4
    ID : 8
    Format : VobSub
    Muxing mode : zlib
    Codec ID : S_VOBSUB
    Codec ID/Info : Picture based subtitle format used on DVDs
    Duration : 1 h 41 min
    Bit rate : 4 959 b/s
    Count of elements : 574
    Stream size : 3.62 MiB (0%)
    Title : TH 1080p AS Yellow
    Language : Thai
    Default : No
    Forced : No

    Text #5
    ID : 9
    Format : VobSub
    Muxing mode : zlib
    Codec ID : S_VOBSUB
    Codec ID/Info : Picture based subtitle format used on DVDs
    Duration : 1 h 41 min
    Bit rate : 3 186 b/s
    Count of elements : 574
    Stream size : 2.32 MiB (0%)
    Title : TH 1080p TA
    Language : Thai
    Default : No
    Forced : No

    Text #6
    ID : 10
    Format : PGS
    Muxing mode : zlib
    Codec ID : S_HDMV/PGS
    Codec ID/Info : Picture based subtitle format used on BDs/HD-DVDs
    Duration : 1 h 41 min
    Bit rate : 11.9 kb/s
    Count of elements : 1148
    Stream size : 8.71 MiB (0%)
    Title : TH PGS AS
    Default : No
    Forced : No

    Text #7
    ID : 11
    Format : PGS
    Muxing mode : zlib
    Codec ID : S_HDMV/PGS
    Codec ID/Info : Picture based subtitle format used on BDs/HD-DVDs
    Duration : 1 h 41 min
    Bit rate : 10.1 kb/s
    Count of elements : 1148
    Stream size : 7.39 MiB (0%)
    Title : TH PGS TA
    Default : No
    Forced : No

    Text #8
    ID : 12
    Format : PGS
    Muxing mode : zlib
    Codec ID : S_HDMV/PGS
    Codec ID/Info : Picture based subtitle format used on BDs/HD-DVDs
    Duration : 1 h 41 min
    Bit rate : 11.9 kb/s
    Count of elements : 1148
    Stream size : 8.71 MiB (0%)
    Title : TH PGS AS Under
    Default : No
    Forced : No

    Text #9
    ID : 13
    Format : UTF-8
    Codec ID : S_TEXT/UTF8
    Codec ID/Info : UTF-8 Plain Text
    Duration : 1 h 42 min
    Bit rate : 85 b/s
    Count of elements : 575
    Stream size : 64.4 KiB (0%)
    Title : TH SRT
    Language : Thai
    Default : No
    Forced : No

    Text #10
    ID : 14
    Format : UTF-8
    Codec ID : S_TEXT/UTF8
    Codec ID/Info : UTF-8 Plain Text
    Duration : 1 h 41 min
    Bit rate : 36 b/s
    Count of elements : 866
    Stream size : 27.4 KiB (0%)
    Title : EN SRT
    Language : English
    Default : No
    Forced : No

    Menu
    00:00:00.000 : en:Chapter 01
    00:10:15.781 : en:Chapter 02
    00:19:09.439 : en:Chapter 03
    00:27:25.477 : en:Chapter 04
    00:37:09.852 : en:Chapter 05
    00:47:32.432 : en:Chapter 06
    00:56:59.416 : en:Chapter 07
    01:05:06.068 : en:Chapter 08
    01:13:49.466 : en:Chapter 09
    01:21:57.913 : en:Chapter 10
    01:30:09.779 : en:Chapter 11
    01:42:23.345 : en:Chapter 12








    http://cornfile.com/wgnyod01o7c7

  2. #2
    Senior Member
    Join Date
    Jul 2012
    Posts
    5,133
    Thanks
    0
    Thanked 0 Times in 0 Posts
    ขอบคุณมากจ้า

  3. #3
    Senior Member
    Join Date
    Oct 2012
    Posts
    453
    Thanks
    12
    Thanked 0 Times in 0 Posts
    ขอบคุณมากมายครับ.

+ Reply to Thread

Thread Information

Users Browsing this Thread

There are currently 1 users browsing this thread. (0 members and 1 guests)

     

Posting Permissions

  • You may not post new threads
  • You may not post replies
  • You may not post attachments
  • You may not edit your posts