Format : Matroska
Format version : Version 4 / Version 2
File size : 5.49 GiB
Duration : 1h 50mn
Overall bit rate : 7 103 Kbps
Movie name : [DTS][email protected]Թ Ǵ
Encoded date : UTC 2017-06-17 07:26:25
Writing application : mkvmerge v7.2.0 ( On Every Street ) 32bit built on Sep 13 2014 15:42:11
Writing library : libebml v1.3.0 + libmatroska v1.4.1

Video
ID : 1
Format : AVC
Format/Info : Advanced Video Codec
Format profile : [email protected]
Format settings, CABAC : Yes
Format settings, ReFrames : 5 frames
Codec ID : V_MPEG4/ISO/AVC
Duration : 1h 50mn
Bit rate : 4 048 Kbps
Width : 1 280 pixels
Height : 536 pixels
Display aspect ratio : 2.40:1
Frame rate mode : Constant
Frame rate : 24.000 fps
Color space : YUV
Chroma subsampling : 4:2:0
Bit depth : 8 bits
Scan type : Progressive
Bits/(Pixel*Frame) : 0.246
Stream size : 3.13 GiB (57%)
Title : [DTS][email protected]Թ Ǵ
Writing library : x264 core 140 r2377 1ca7bb9
Encoding settings : cabac=1 / ref=5 / deblock=1:0:0 / analyse=0x3:0x133 / me=umh / subme=7 / psy=1 / psy_rd=1.00:0.00 / mixed_ref=1 / me_range=16 / chroma_me=1 / trellis=1 / 8x8dct=1 / cqm=0 / deadzone=21,11 / fast_pskip=0 / chroma_qp_offset=-2 / threads=36 / lookahead_threads=4 / sliced_threads=0 / nr=0 / decimate=1 / interlaced=0 / bluray_compat=0 / constrained_intra=0 / bframes=3 / b_pyramid=2 / b_adapt=1 / b_bias=0 / direct=1 / weightb=1 / open_gop=0 / weightp=2 / keyint=250 / keyint_min=23 / scenecut=40 / intra_refresh=0 / rc_lookahead=40 / rc=2pass / mbtree=1 / bitrate=4048 / ratetol=1.0 / qcomp=0.60 / qpmin=0 / qpmax=69 / qpstep=4 / cplxblur=20.0 / qblur=0.5 / ip_ratio=1.40 / aq=1:1.00
Language : Chinese

Audio #1
ID : 2
Format : DTS
Format/Info : Digital Theater Systems
Mode : 16
Format settings, Endianness : Big
Codec ID : A_DTS
Duration : 1h 50mn
Bit rate mode : Constant
Bit rate : 1 509 Kbps
Channel(s) : 6 channels
Channel positions : Front: L C R, Side: L R, LFE
Sampling rate : 48.0 KHz
Frame rate : 93.750 fps (512 spf)
Bit depth : 24 bits
Compression mode : Lossy
Stream size : 1.17 GiB (21%)
Title : Chinese Mandarin
Language : Chinese

Audio #2
ID : 3
Format : DTS
Format/Info : Digital Theater Systems
Mode : 16
Format settings, Endianness : Big
Codec ID : A_DTS
Duration : 1h 50mn
Bit rate mode : Constant
Bit rate : 1 509 Kbps
Channel(s) : 6 channels
Channel positions : Front: L C R, Side: L R, LFE
Sampling rate : 48.0 KHz
Frame rate : 93.750 fps (512 spf)
Bit depth : 24 bits
Compression mode : Lossy
Stream size : 1.17 GiB (21%)
Title : English DTS
Language : English

Text #1
ID : 4
Format : VobSub
Codec ID : S_VOBSUB
Codec ID/Info : Picture based subtitle format used on DVDs
Duration : 1h 44mn
Bit rate : 1 639 bps
Count of elements : 807
Stream size : 1.23 MiB (0%)
Title : Thai 480p
Language : Thai

Text #2
ID : 5
Format : VobSub
Codec ID : S_VOBSUB
Codec ID/Info : Picture based subtitle format used on DVDs
Duration : 1h 44mn
Bit rate : 3 263 bps
Count of elements : 807
Stream size : 2.45 MiB (0%)
Title : Thai 720p
Language : Thai

Text #3
ID : 6
Format : VobSub
Codec ID : S_VOBSUB
Codec ID/Info : Picture based subtitle format used on DVDs
Duration : 1h 44mn
Bit rate : 4 637 bps
Count of elements : 807
Stream size : 3.48 MiB (0%)
Title : Thai 1080p [email protected]ԹǴ
Language : Thai

Text #4
ID : 7
Format : VobSub
Codec ID : S_VOBSUB
Codec ID/Info : Picture based subtitle format used on DVDs
Duration : 1h 44mn
Bit rate : 4 855 bps
Count of elements : 807
Stream size : 3.64 MiB (0%)
Title : Thai 1080p Sarabun
Language : Thai

Text #5
ID : 8
Format : VobSub
Codec ID : S_VOBSUB
Codec ID/Info : Picture based subtitle format used on DVDs
Duration : 1h 44mn
Bit rate : 5 586 bps
Count of elements : 807
Stream size : 4.19 MiB (0%)
Title : Thai 1080p Yellow
Language : Thai

Text #6
ID : 9
Format : PGS
Codec ID : S_HDMV/PGS
Codec ID/Info : Picture based subtitle format used on BDs/HD-DVDs
Duration : 1h 44mn
Bit rate : 16.4 Kbps
Count of elements : 1616
Stream size : 12.3 MiB (0%)
Title : Thai PGS
Language : Thai

Text #7
ID : 10
Format : UTF-8
Codec ID : S_TEXT/UTF8
Codec ID/Info : UTF-8 Plain Text
Duration : 1h 42mn
Bit rate : 29 bps
Count of elements : 972
Stream size : 22.5 KiB (0%)
Title : English SRT
Language : English


















720p 5.5 GB

http://cornfile.com/1wms03hg8jmb

http://fzfile.com/vb40ud9hz66k

1080p 8.8 GB

http://cornfile.com/q8qkc0pirhee

http://fzfile.com/jg908uhvo3or