+ Reply to Thread
Results 1 to 2 of 2
  1. #1
    Administrators Duckload.us's Avatar
    Join Date
    Dec 2010
    Posts
    79,496
    Thanks
    8
    Thanked 85,433 Times in 40,424 Posts

    Red face [ฝรั่ง]-Transformers collection 1-4 เตรียมตัวต้อนรับภาคใหม่ 1080p-DTS-Blu ray-AVC-H.264-AAA-[พากย์ไทย บรรยายไทย]-Blu-ray.DTS.1080p. [Master]-[Soundtrack บรรยายไทย]

    cornfile.com


    Transformers 1 มหาวิบัติจักรกลสังหารถล่มจักรวาล (2007) 1080p
    พากย์ อังกฤษ ไทย DTS และ AC-3 บรรยาย อังกฤษ ไทย

    เมื่อโลกเปลี่ยนเป็นสมรภูมิรบของพวกมัน เหล่า”ทรานฟอร์เมอร์“จักรกลสังหารที่มาจากจักรวาลอัน ไกลโพ้น ฝ่ายออโต้บอท ผู้พิทักษ์รักสันติ ซึ่งมี ออพติมัส ไพร์ม เป็นผู้นำ และฝ่าย ดีเซปทิคอนส์ ผู้ทำลายล้าง ซึ่งมี เมกะทรอน เป็นผู้นำและหวังจะยึดครองแหล่งพลังงานบนโลก สงครามของทั้งสองฝ่ายจึงเกิดขึ้นบนโลกของเรา ซึ่งกุญแจสำคัญของสุดยอดพลังอำนาจที่ฝ่ายทำลายล้างต้ องการครอบครองนั้นอยู่ที่เด็กหนุ่มที่ชื่อ แซม วิทวิคกี้ (ไชอา ลาบัฟฟ์) ที่ยังไม่รู้ว่าเขาคือความหวังสุดท้ายของโลกTransfor mers แซมและแฟนสาวสวย มิคาเอลล่า (เมแกน ฟ็อกซ์ ) ต้องตกอยู่ในวงล้อมของมหาวิบัติจักรกลสังหารถล่มจักร วาลนี้ เมื่อถูกต้อนในอยู่ในสถานการณ์ที่อันตรายถึงชีวิต จากเด็กหนุ่มที่ยังไม่ประสีประสาในเรื่องราวใดๆ ก็กลับทำให้แซมเข้าใจถึง คติประจำครอบครัวของตนเองที่ว่า ..ถ้าไม่มีการเสียสละ ก็ไม่มีวันได้มาซึ่งชัยชนะ!..

    General
    Unique ID : 250236657624497957715577860717046849024 (0xBC41D3C40CDE7BD9A2762489C2A6DE00)
    Complete name : Transformers 1 มหาวิบัติจักรกลสังหารถล่มจักรวาล (2007) 1080p.mkv
    Format : Matroska
    Format version : Version 4 / Version 2
    File size : 15.1 GiB
    Duration : 2h 23mn
    Overall bit rate : 15.0 Mbps
    Encoded date : UTC 2016-03-21 22:49:28
    Writing application : mkvmerge v8.2.0 ( World of Adventure ) 64bit
    Writing library : libebml v1.3.1 + libmatroska v1.4.2
    DURATION : 02:22:26.996000000
    NUMBER_OF_FRAMES : 3456
    NUMBER_OF_BYTES : 8612223
    _STATISTICS_WRITING_APP : mkvmerge v8.2.0 ( World of Adventure ) 64bit
    _STATISTICS_WRITING_DATE_UTC : 2016-03-21 22:49:28
    _STATISTICS_TAGS : BPS DURATION NUMBER_OF_FRAMES NUMBER_OF_BYTES

    Video
    ID : 1
    Format : AVC
    Format/Info : Advanced Video Codec
    Format profile : [email protected]
    Format settings, CABAC : Yes
    Format settings, ReFrames : 12 frames
    Format settings, GOP : N=1
    Codec ID : V_MPEG4/ISO/AVC
    Duration : 2h 23mn
    Bit rate : 10.7 Mbps
    Width : 1 920 pixels
    Height : 800 pixels
    Display aspect ratio : 2.40:1
    Frame rate mode : Constant
    Frame rate : 23.976 fps
    Color space : YUV
    Chroma subsampling : 4:2:0
    Bit depth : 8 bits
    Scan type : Progressive
    Bits/(Pixel*Frame) : 0.291
    Stream size : 10.5 GiB (69%)
    Writing library : x264 core 60 r877M c74a8e2
    Encoding settings : cabac=1 / ref=12 / deblock=1:-3:-3 / analyse=0x3:0x133 / me=umh / subme=7 / me-prepass=0 / brdo=1 / mixed_ref=1 / me_range=50 / chroma_me=1 / trellis=0 / 8x8dct=1 / cqm=2 / deadzone=8,8 / chroma_qp_offset=0 / threads=6 / nr=0 / decimate=1 / mbaff=0 / fgo=9 / bframes=16 / b_pyramid=1 / b_adapt=1 / b_bias=0 / direct=3 / wpredb=1 / bime=1 / keyint=250 / keyint_min=25 / scenecut=40(pre) / rc=2pass / bitrate=10721 / ratetol=1.0 / rceq= blurCplx^(1-qComp) / qcomp=1.00 / qpmin=10 / qpmax=51 / qpstep=4 / cplxblur=20.0 / qblur=0.5 / ip_ratio=1.40 / pb_ratio=1.16 / aq=2:0.80
    Language : English
    Default : Yes
    Forced : No
    DURATION : 02:23:27.217000000
    NUMBER_OF_FRAMES : 206367
    NUMBER_OF_BYTES : 11535546487
    _STATISTICS_WRITING_APP : mkvmerge v8.2.0 ( World of Adventure ) 64bit
    _STATISTICS_WRITING_DATE_UTC : 2016-03-21 22:49:28
    _STATISTICS_TAGS : BPS DURATION NUMBER_OF_FRAMES NUMBER_OF_BYTES

    Audio #1
    ID : 2
    Format : DTS
    Format/Info : Digital Theater Systems
    Mode : 16
    Format settings, Endianness : Big
    Codec ID : A_DTS
    Duration : 2h 23mn
    Bit rate mode : Constant
    Bit rate : 1 510 Kbps
    Channel(s) : 6 channels
    Channel positions : Front: L C R, Side: L R, LFE
    Sampling rate : 48.0 KHz
    Bit depth : 24 bits
    Compression mode : Lossy
    Stream size : 1.51 GiB (10%)
    Title : Thai DTS by princo13
    Language : Thai
    Default : Yes
    Forced : Yes

    Audio #2
    ID : 3
    Format : DTS
    Format/Info : Digital Theater Systems
    Mode : 16
    Format settings, Endianness : Big
    Codec ID : A_DTS
    Duration : 2h 23mn
    Bit rate mode : Constant
    Bit rate : 1 510 Kbps
    Channel(s) : 6 channels
    Channel positions : Front: L C R, Side: L R, LFE
    Sampling rate : 48.0 KHz
    Bit depth : 24 bits
    Compression mode : Lossy
    Stream size : 1.51 GiB (10%)
    Title : Eng DTS
    Language : English
    Default : No
    Forced : No

    Audio #3
    ID : 4
    Format : AC-3
    Format/Info : Audio Coding 3
    Mode extension : CM (complete main)
    Format settings, Endianness : Big
    Codec ID : A_AC3
    Duration : 2h 23mn
    Bit rate mode : Constant
    Bit rate : 640 Kbps
    Channel(s) : 6 channels
    Channel positions : Front: L C R, Side: L R, LFE
    Sampling rate : 48.0 KHz
    Compression mode : Lossy
    Stream size : 657 MiB (4%)
    Title : Thai AC-3
    Language : Thai
    Default : No
    Forced : No

    Audio #4
    ID : 5
    Format : AC-3
    Format/Info : Audio Coding 3
    Mode extension : CM (complete main)
    Format settings, Endianness : Big
    Codec ID : A_AC3
    Duration : 2h 23mn
    Bit rate mode : Constant
    Bit rate : 640 Kbps
    Channel(s) : 6 channels
    Channel positions : Front: L C R, Side: L R, LFE
    Sampling rate : 48.0 KHz
    Compression mode : Lossy
    Stream size : 657 MiB (4%)
    Title : Eng AC-3
    Language : English
    Default : No
    Forced : No

    Text #1
    ID : 6
    Format : VobSub
    Muxing mode : zlib
    Codec ID : S_VOBSUB
    Codec ID/Info : Picture based subtitle format used on DVDs
    Title : Thai
    Language : Thai
    Default : No
    Forced : No

    Text #2
    ID : 7
    Format : PGS
    Muxing mode : zlib
    Codec ID : S_HDMV/PGS
    Codec ID/Info : Picture based subtitle format used on BDs/HD-DVDs
    Title : Thai PGS
    Language : Thai
    Default : No
    Forced : No

    Text #3
    ID : 8
    Format : PGS
    Muxing mode : zlib
    Codec ID : S_HDMV/PGS
    Codec ID/Info : Picture based subtitle format used on BDs/HD-DVDs
    Title : Thai PGS UNDER
    Language : Thai
    Default : No
    Forced : No

    Text #4
    ID : 9
    Format : UTF-8
    Codec ID : S_TEXT/UTF8
    Codec ID/Info : UTF-8 Plain Text
    Title : Thai SRT
    Language : Thai
    Default : No
    Forced : No

    Text #5
    ID : 10
    Format : ASS
    Codec ID : S_TEXT/ASS
    Codec ID/Info : Advanced Sub Station Alpha
    Compression mode : Lossless
    Title : Eng
    Language : English
    Default : No
    Forced : No

    Text #6
    ID : 11
    Format : UTF-8
    Codec ID : S_TEXT/UTF8
    Codec ID/Info : UTF-8 Plain Text
    Title : Eng SRT
    Language : English
    Default : No
    Forced : No

    xxxxxxxxxxxxxxxxxxxxxxxxxxxxxxxxxxxxxxxxxxxxxxxxxx xxxxxxxxxxxxxxxxxxx

    Transformers 2 อภิมหาสงครามแค้น Revenge of the Fallen (2009) 1080p
    พากย์ อังกฤษ ไทย DTS และ AC-3 บรรยาย อังกฤษ ไทย

    สองปี ผ่านไป นับแต่หนุ่มน้อย แซม วิทวิคกี้(ไชอา ลาบัฟ) ได้ช่วยจักรวาลให้รอดพ้นจากศึกTransformersขั้นเด็ดข าดระหว่างหุ่นยนต์จากต่างดาวที่กำลังสู้รบกันอยู่ แม้จะสร้างวีรกรรมอันกล้าหาญสุดขั้วมาแล้ว แต่แซมยังคงเป็นวัยรุ่นธรรมด๊าธรรมดาที่มีปัญหาว้าวุ ่นใจไม่เว้นแต่ละวัน ไม่ว่าจะเป็นเรื่องการต้องไปเรียนต่อมหาวิทยาลัย การต้องทิ้งมิเกล่า(เมแกน ฟ็อกซ์) แฟนสาวของเขาเอาไว้ที่บ้านเกิด และต้องแยกห่างจากพ่อแม่ของเขา(เควิน ดันน์และจูลี่ ไวท์) เป็น ครั้งแรก แน่นอน ยังมีเรื่องทรานฟอร์เมอร์ 2หนักใจอื่นๆ อีกเมื่อแซมต้องพยายามอธิบายให้เพื่อนใหม่ของเขาฟังว ่าทำไมเขาถึงต้องจากมา Transformers 2: REVENGE OF THE FALLEN เพื่อนคนใหม่ที่ว่าก็คือหุ่นยนต์ที่คอยคุ้มครองดูแลเ ขาอย่างบัมเบิลบี สำหรับแซมแล้ว เป้าหมายของเขาก็คือการใช้ชีวิตในรั้วมหาวิทยาลัยอย่ างเด็กนักศึกษาธรรมดาๆ แต่การจะทำตัวให้ธรรมดาได้ เขาต้องทำเป็นไม่สนโชคชะตาของตัวเขาเองเสียก่อน

    General
    Unique ID : 193277713819822188273287381905679417548 (0x9167EF0486F94CD3B3B0C362800980CC)
    Complete name : Transformers 2 อภิมหาสงครามแค้น Revenge of the Fallen (2009)1080p.mkv
    Format : Matroska
    Format version : Version 4 / Version 2
    File size : 13.7 GiB
    Duration : 2h 30mn
    Overall bit rate : 13.0 Mbps
    Movie name : {Super Mini-HD 1080p HQ} Transformers Revenge of the Fallen 2009 BluRay 1080p DTS x264-จิ้งจอกเก้าหาง
    Encoded date : UTC 2016-03-22 03:58:02
    Writing application : mkvmerge v8.2.0 ( World of Adventure ) 64bit
    Writing library : libebml v1.3.1 + libmatroska v1.4.2
    DURATION : 02:28:55.052000000
    NUMBER_OF_FRAMES : 3628
    NUMBER_OF_BYTES : 9402389
    _STATISTICS_WRITING_APP : mkvmerge v8.2.0 ( World of Adventure ) 64bit
    _STATISTICS_WRITING_DATE_UTC : 2016-03-22 03:58:02
    _STATISTICS_TAGS : BPS DURATION NUMBER_OF_FRAMES NUMBER_OF_BYTES

    Video
    ID : 1
    Format : AVC
    Format/Info : Advanced Video Codec
    Format profile : [email protected]
    Format settings, CABAC : Yes
    Format settings, ReFrames : 5 frames
    Codec ID : V_MPEG4/ISO/AVC
    Duration : 2h 30mn
    Bit rate : 8 935 Kbps
    Width : 1 920 pixels
    Height : 800 pixels
    Display aspect ratio : 2.40:1
    Frame rate mode : Constant
    Frame rate : 23.976 fps
    Color space : YUV
    Chroma subsampling : 4:2:0
    Bit depth : 8 bits
    Scan type : Progressive
    Bits/(Pixel*Frame) : 0.243
    Stream size : 9.09 GiB (66%)
    Writing library : x264 core 76 r1271 496d79d
    Encoding settings : cabac=1 / ref=5 / deblock=1:0:0 / analyse=0x3:0x133 / me=umh / subme=7 / psy=1 / psy_rd=1.0:0.0 / mixed_ref=1 / me_range=16 / chroma_me=1 / trellis=1 / 8x8dct=1 / cqm=0 / deadzone=21,11 / chroma_qp_offset=-2 / threads=6 / nr=0 / decimate=1 / mbaff=0 / bframes=3 / b_pyramid=0 / b_adapt=1 / b_bias=0 / direct=1 / wpredb=1 / keyint=250 / keyint_min=25 / scenecut=40 / rc_lookahead=40 / rc=2pass / mbtree=1 / bitrate=8935 / ratetol=1.0 / qcomp=0.60 / qpmin=10 / qpmax=51 / qpstep=4 / cplxblur=20.0 / qblur=0.5 / ip_ratio=1.40 / aq=1:1.00
    Language : English
    Default : Yes
    Forced : No
    DURATION : 02:29:52.999000000
    NUMBER_OF_FRAMES : 215616
    NUMBER_OF_BYTES : 10043345308
    _STATISTICS_WRITING_APP : mkvmerge v8.2.0 ( World of Adventure ) 64bit
    _STATISTICS_WRITING_DATE_UTC : 2016-03-22 03:58:02
    _STATISTICS_TAGS : BPS DURATION NUMBER_OF_FRAMES NUMBER_OF_BYTES

    Audio #1
    ID : 2
    Format : DTS
    Format/Info : Digital Theater Systems
    Mode : 16
    Format settings, Endianness : Big
    Codec ID : A_DTS
    Duration : 2h 30mn
    Bit rate mode : Constant
    Bit rate : 1 510 Kbps
    Channel(s) : 6 channels
    Channel positions : Front: L C R, Side: L R, LFE
    Sampling rate : 48.0 KHz
    Bit depth : 24 bits
    Compression mode : Lossy
    Delay relative to video : 1s 0ms
    Stream size : 1.59 GiB (12%)
    Title : Thai DTS by princo13
    Language : Thai
    Default : Yes
    Forced : Yes

    Audio #2
    ID : 3
    Format : DTS
    Format/Info : Digital Theater Systems
    Mode : 16
    Format settings, Endianness : Big
    Codec ID : A_DTS
    Duration : 2h 30mn
    Bit rate mode : Constant
    Bit rate : 1 509 Kbps
    Channel(s) : 6 channels
    Channel positions : Front: L C R, Side: L R, LFE
    Sampling rate : 48.0 KHz
    Bit depth : 24 bits
    Compression mode : Lossy
    Stream size : 1.59 GiB (12%)
    Title : Eng DTS
    Language : English
    Default : No
    Forced : No

    Audio #3
    ID : 4
    Format : AC-3
    Format/Info : Audio Coding 3
    Mode extension : CM (complete main)
    Format settings, Endianness : Big
    Codec ID : A_AC3
    Duration : 2h 30mn
    Bit rate mode : Constant
    Bit rate : 640 Kbps
    Channel(s) : 6 channels
    Channel positions : Front: L C R, Side: L R, LFE
    Sampling rate : 48.0 KHz
    Compression mode : Lossy
    Stream size : 688 MiB (5%)
    Title : Thai AC-3
    Language : Thai
    Default : No
    Forced : No

    Audio #4
    ID : 5
    Format : AC-3
    Format/Info : Audio Coding 3
    Mode extension : CM (complete main)
    Format settings, Endianness : Big
    Codec ID : A_AC3
    Duration : 2h 30mn
    Bit rate mode : Constant
    Bit rate : 448 Kbps
    Channel(s) : 6 channels
    Channel positions : Front: L C R, Side: L R, LFE
    Sampling rate : 48.0 KHz
    Compression mode : Lossy
    Stream size : 482 MiB (3%)
    Title : Eng AC-3
    Language : English
    Default : No
    Forced : No

    Text #1
    ID : 6
    Format : VobSub
    Muxing mode : zlib
    Codec ID : S_VOBSUB
    Codec ID/Info : Picture based subtitle format used on DVDs
    Title : Thai
    Language : Thai
    Default : No
    Forced : No

    Text #2
    ID : 7
    Format : PGS
    Muxing mode : zlib
    Codec ID : S_HDMV/PGS
    Codec ID/Info : Picture based subtitle format used on BDs/HD-DVDs
    Title : Thai PGS
    Language : Thai
    Default : No
    Forced : No

    Text #3
    ID : 8
    Format : PGS
    Muxing mode : zlib
    Codec ID : S_HDMV/PGS
    Codec ID/Info : Picture based subtitle format used on BDs/HD-DVDs
    Title : Thai PGS UNDER
    Language : Thai
    Default : No
    Forced : No

    Text #4
    ID : 9
    Format : UTF-8
    Codec ID : S_TEXT/UTF8
    Codec ID/Info : UTF-8 Plain Text
    Title : Thai SRT
    Language : Thai
    Default : No
    Forced : No

    Text #5
    ID : 10
    Format : UTF-8
    Codec ID : S_TEXT/UTF8
    Codec ID/Info : UTF-8 Plain Text
    Title : Eng SRT
    Language : English
    Default : No
    Forced : No

    Text #6
    ID : 11
    Format : UTF-8
    Codec ID : S_TEXT/UTF8
    Codec ID/Info : UTF-8 Plain Text
    Title : Eng
    Language : English
    Default : No
    Forced : No

    xxxxxxxxxxxxxxxxxxxxxxxxxxxxxxxxxxxxxxxxxxxxxxxxxx xxxxxxxxxxxxxxxxxxxxxxx

    Transformers 3 ด้านมืดของดวงจันทร์ Dark of the Moon (2011) 1080p
    พากย์ อังกฤษ ไทย DTS และ AC-3 บรรยาย อังกฤษ ไทย

    แซม วิทวิคกี้ (ลาบัฟ) ที่กำลังจะย่างเท้าก้าวแรกเข้าสู่ความเป็นผู้ใหญ่พร้ อมๆกับการรักษาสถานะการเป็นมิตรชาวมนุษย์กับออพติมัส ไพรม์เอาไว้ ภาพยนตร์เรื่องTransformer 3นี้มีฉากหลังเป็นการแข่งขันทางอวกาศระหว่างสหภาพโซเ วียตและสหรัฐอเมริกา ซึ่งบ่งบอกว่าเหล่าทรานส์ฟอร์เมอร์ มีบทบาทที่ซ่อนเร้นอยู่ และนั่นก็คือหนึ่งในความลับที่อันตรายที่สุดของโลก และหนึ่งในหุ่นตัวร้ายของภาคนี้คือ ช็อคเวฟ

    General
    Unique ID : 190250986904661803293076671221238943484 (0x8F2101DBFB1832709D68D9DC24C54EFC)
    Complete name : Transformers 3 ด้านมืดของดวงจันทร์ Dark of the Moon (2011) 1080p.mkv
    Format : Matroska
    Format version : Version 4 / Version 2
    File size : 13.8 GiB
    Duration : 2h 34mn
    Overall bit rate : 12.8 Mbps
    Encoded date : UTC 2016-03-22 05:45:25
    Writing application : mkvmerge v8.2.0 ( World of Adventure ) 64bit
    Writing library : libebml v1.3.1 + libmatroska v1.4.2
    DURATION : 02:25:52.836000000
    NUMBER_OF_FRAMES : 2067
    NUMBER_OF_BYTES : 73481
    _STATISTICS_WRITING_APP : mkvmerge v8.2.0 ( World of Adventure ) 64bit
    _STATISTICS_WRITING_DATE_UTC : 2016-03-22 05:45:25
    _STATISTICS_TAGS : BPS DURATION NUMBER_OF_FRAMES NUMBER_OF_BYTES

    Video
    ID : 1
    Format : AVC
    Format/Info : Advanced Video Codec
    Format profile : [email protected]
    Format settings, CABAC : Yes
    Format settings, ReFrames : 5 frames
    Codec ID : V_MPEG4/ISO/AVC
    Duration : 2h 34mn
    Bit rate : 8 475 Kbps
    Width : 1 920 pixels
    Height : 800 pixels
    Display aspect ratio : 2.40:1
    Frame rate mode : Constant
    Frame rate : 23.976 fps
    Color space : YUV
    Chroma subsampling : 4:2:0
    Bit depth : 8 bits
    Scan type : Progressive
    Bits/(Pixel*Frame) : 0.230
    Stream size : 8.89 GiB (64%)
    Writing library : x264 core 118 r2085 8a62835
    Encoding settings : cabac=1 / ref=5 / deblock=1:0:0 / analyse=0x3:0x133 / me=umh / subme=8 / psy=1 / psy_rd=1.00:0.00 / mixed_ref=1 / me_range=16 / chroma_me=1 / trellis=1 / 8x8dct=1 / cqm=0 / deadzone=21,11 / fast_pskip=0 / chroma_qp_offset=-2 / threads=18 / sliced_threads=0 / nr=0 / decimate=1 / interlaced=0 / bluray_compat=0 / constrained_intra=0 / bframes=3 / b_pyramid=2 / b_adapt=1 / b_bias=0 / direct=1 / weightb=1 / open_gop=0 / weightp=2 / keyint=240 / keyint_min=24 / scenecut=40 / intra_refresh=0 / rc_lookahead=40 / rc=2pass / mbtree=1 / bitrate=8475 / ratetol=1.0 / qcomp=0.60 / qpmin=0 / qpmax=69 / qpstep=4 / cplxblur=20.0 / qblur=0.5 / ip_ratio=1.40 / aq=1:1.00
    Language : English
    Default : Yes
    Forced : No
    DURATION : 02:34:23.254000000
    NUMBER_OF_FRAMES : 222096
    NUMBER_OF_BYTES : 9809098220
    _STATISTICS_WRITING_APP : mkvmerge v8.2.0 ( World of Adventure ) 64bit
    _STATISTICS_WRITING_DATE_UTC : 2016-03-22 05:45:25
    _STATISTICS_TAGS : BPS DURATION NUMBER_OF_FRAMES NUMBER_OF_BYTES

    Audio #1
    ID : 2
    Format : DTS
    Format/Info : Digital Theater Systems
    Mode : 16
    Format settings, Endianness : Big
    Codec ID : A_DTS
    Duration : 2h 34mn
    Bit rate mode : Constant
    Bit rate : 1 510 Kbps
    Channel(s) : 6 channels
    Channel positions : Front: L C R, Side: L R, LFE
    Sampling rate : 48.0 KHz
    Bit depth : 24 bits
    Compression mode : Lossy
    Stream size : 1.63 GiB (12%)
    Title : Thai DTS by princo13
    Language : Thai
    Default : Yes
    Forced : Yes

    Audio #2
    ID : 3
    Format : DTS
    Format/Info : Digital Theater Systems
    Mode : 16
    Format settings, Endianness : Big
    Codec ID : A_DTS
    Duration : 2h 34mn
    Bit rate mode : Constant
    Bit rate : 1 510 Kbps
    Channel(s) : 6 channels
    Channel positions : Front: L C R, Side: L R, LFE
    Sampling rate : 48.0 KHz
    Bit depth : 24 bits
    Compression mode : Lossy
    Stream size : 1.63 GiB (12%)
    Title : Eng DTS
    Language : English
    Default : No
    Forced : No

    Audio #3
    ID : 4
    Format : AC-3
    Format/Info : Audio Coding 3
    Mode extension : CM (complete main)
    Format settings, Endianness : Big
    Codec ID : A_AC3
    Duration : 2h 34mn
    Bit rate mode : Constant
    Bit rate : 640 Kbps
    Channel(s) : 6 channels
    Channel positions : Front: L C R, Side: L R, LFE
    Sampling rate : 48.0 KHz
    Compression mode : Lossy
    Stream size : 707 MiB (5%)
    Title : Thai AC-3
    Language : Thai
    Default : No
    Forced : No

    Audio #4
    ID : 5
    Format : AC-3
    Format/Info : Audio Coding 3
    Mode extension : CM (complete main)
    Format settings, Endianness : Big
    Codec ID : A_AC3
    Duration : 2h 34mn
    Bit rate mode : Constant
    Bit rate : 640 Kbps
    Channel(s) : 6 channels
    Channel positions : Front: L C R, Side: L R, LFE
    Sampling rate : 48.0 KHz
    Compression mode : Lossy
    Stream size : 707 MiB (5%)
    Title : Eng AC-3
    Language : English
    Default : No
    Forced : No

    Text #1
    ID : 6
    Format : VobSub
    Muxing mode : zlib
    Codec ID : S_VOBSUB
    Codec ID/Info : Picture based subtitle format used on DVDs
    Title : Thai
    Language : Thai
    Default : No
    Forced : No

    Text #2
    ID : 7
    Format : PGS
    Muxing mode : zlib
    Codec ID : S_HDMV/PGS
    Codec ID/Info : Picture based subtitle format used on BDs/HD-DVDs
    Title : Thai PGS
    Language : Thai
    Default : No
    Forced : No

    Text #3
    ID : 8
    Format : PGS
    Muxing mode : zlib
    Codec ID : S_HDMV/PGS
    Codec ID/Info : Picture based subtitle format used on BDs/HD-DVDs
    Title : Thai PGS UNDER
    Language : Thai
    Default : No
    Forced : No

    Text #4
    ID : 9
    Format : UTF-8
    Codec ID : S_TEXT/UTF8
    Codec ID/Info : UTF-8 Plain Text
    Title : Thai SRT
    Language : Thai
    Default : No
    Forced : No

    Text #5
    ID : 10
    Format : VobSub
    Muxing mode : zlib
    Codec ID : S_VOBSUB
    Codec ID/Info : Picture based subtitle format used on DVDs
    Title : Eng
    Language : English
    Default : No
    Forced : No

    Text #6
    ID : 11
    Format : UTF-8
    Codec ID : S_TEXT/UTF8
    Codec ID/Info : UTF-8 Plain Text
    Title : ENG SRT
    Language : English
    Default : No
    Forced : No

    Menu
    00:00:00.000 : en:Battle For Cybertron/Apollo Conspiracy
    00:08:52.573 : en:Meeting Carly
    00:14:26.615 : en:Chernobyl
    00:20:20.928 : en:Interviews
    00:28:48.143 : en:Sentinel Prime
    00:36:18.634 : enay At Work
    00:45:18.549 : en:Resurrecting Sentinel
    00:51:53.026 : en:The Expert
    00:56:34.224 : en:Russian Cosmonauts
    01:04:13.307 : en:Soviet Secrets
    01:12:56.705 : en:Megatron Hatches Plan
    01:19:09.077 : en:Revealing Traitors
    01:23:41.391 : en:Autobots Exiled
    01:28:44.819 : en:Moving To The City
    01:35:13.082 : en:Gathering The Troops
    01:42:44.158 : en:Rescue Plan
    01:49:12.337 : en:Flying Squirrels
    01:56:42.912 : en:Shockwave
    02:04:59.116 : en:Battle In The City
    02:11:29.590 : en:"Aim For The Eyes!"
    02:19:10.884 : en:Closing Of Old Accounts
    02:25:37.520 : en:Finale/End Credits

    xxxxxxxxxxxxxxxxxxxxxxxxxxxxxxxxxxxxxxxxxxxxxxxxxx xxxxxxxxxxxxxxxxxxxxxxxxx

    Transformers 4 มหาวิบัติยุคสูญพันธุ์ Age of Extinction (2014) 1080p
    พากย์ อังกฤษ ไทย DTS และ AC-3 บรรยาย อังกฤษ ไทย

    เริ่มต้นหลังจากสงครามครั้งใหญ่ที่ทำให้เมืองพังพินา ศ แต่โลกก็อยู่รอดปลอดภัย ในขณะที่มนุษยชาติเริ่มฟื้นตัว ก็มีวายร้ายกลุ่มหนึ่งเผยตัวออกมาพยายามจะควบคุมกระแ สประวัติศาสตร์…ขณะที่ศัตรูทรงพลังจากโบราณกาลก็ทำให ้โลกต้องเผชิญหน้ากับหายนะอีกครั้ง
    ด้วยความช่วยเหลือจากมนุษย์กลุ่มใหม่ (นำโดยมาร์ค วอห์ลเบิร์ก) ออพติมัส ไพรม์และเหล่าออโต้บอท ก็ต้องเผชิญหน้ากับความท้าทายที่น่าสะพรึงกลัวที่สุด ในการผจญภัยที่เหลือเชื่อครั้งนี้ พวกเขาจะต้องต่อสู้ในสงครามระหว่างธรรมะและอธรรม ที่ท้ายที่สุดแล้ว ก็กลายเป็นมหึมาสงครามของโลก

    General
    Unique ID : 219123664296771239839855120401530323380 (0xA4D9AEC2C28B3BFFAD66602A108381B4)
    Complete name : Transformers 4 มหาวิบัติยุคสูญพันธุ์ Age of Extinction (2014) 1080p.mkv
    Format : Matroska
    Format version : Version 4 / Version 2
    File size : 13.8 GiB
    Duration : 2h 45mn
    Overall bit rate : 11.9 Mbps
    Movie name : {Super Mini-HD 1080p HQ} Transformers 4 Age of Extinction 2014 BluRay 1080p DTS x264-จิ้งจอกเก้าหาง
    Encoded date : UTC 2016-02-20 00:18:19
    Writing application : mkvmerge v8.2.0 ( World of Adventure ) 64bit
    Writing library : libebml v1.3.1 + libmatroska v1.4.2
    DURATION : 02:45:07.296000000
    NUMBER_OF_FRAMES : 309603
    NUMBER_OF_BYTES : 475550208
    _STATISTICS_WRITING_APP : mkvmerge v8.2.0 ( World of Adventure ) 64bit
    _STATISTICS_WRITING_DATE_UTC : 2016-02-20 00:18:19
    _STATISTICS_TAGS : BPS DURATION NUMBER_OF_FRAMES NUMBER_OF_BYTES

    Video
    ID : 1
    Format : AVC
    Format/Info : Advanced Video Codec
    Format profile : [email protected]
    Format settings, CABAC : Yes
    Format settings, ReFrames : 5 frames
    Codec ID : V_MPEG4/ISO/AVC
    Duration : 2h 45mn
    Bit rate : 8 835 Kbps
    Width : 1 920 pixels
    Height : 800 pixels
    Display aspect ratio : 2.40:1
    Frame rate mode : Constant
    Frame rate : 23.976 fps
    Color space : YUV
    Chroma subsampling : 4:2:0
    Bit depth : 8 bits
    Scan type : Progressive
    Bits/(Pixel*Frame) : 0.240
    Stream size : 10.0 GiB (73%)
    Writing library : x264 core 142 r2479 dd79a61
    Encoding settings : cabac=1 / ref=5 / deblock=1:0:0 / analyse=0x3:0x133 / me=umh / subme=7 / psy=1 / psy_rd=1.00:0.00 / mixed_ref=1 / me_range=16 / chroma_me=1 / trellis=1 / 8x8dct=1 / cqm=0 / deadzone=21,11 / fast_pskip=0 / chroma_qp_offset=-2 / threads=18 / lookahead_threads=3 / sliced_threads=0 / nr=0 / decimate=1 / interlaced=0 / bluray_compat=0 / constrained_intra=0 / bframes=3 / b_pyramid=2 / b_adapt=1 / b_bias=0 / direct=1 / weightb=1 / open_gop=0 / weightp=2 / keyint=250 / keyint_min=23 / scenecut=40 / intra_refresh=0 / rc_lookahead=40 / rc=2pass / mbtree=1 / bitrate=8835 / ratetol=1.0 / qcomp=0.60 / qpmin=0 / qpmax=69 / qpstep=4 / cplxblur=20.0 / qblur=0.5 / ip_ratio=1.40 / aq=1:1.00
    Language : English
    Default : Yes
    Forced : No
    DURATION : 02:45:07.288000000
    NUMBER_OF_FRAMES : 237537
    NUMBER_OF_BYTES : 10937509651
    _STATISTICS_WRITING_APP : mkvmerge v8.2.0 ( World of Adventure ) 64bit
    _STATISTICS_WRITING_DATE_UTC : 2016-02-20 00:18:19
    _STATISTICS_TAGS : BPS DURATION NUMBER_OF_FRAMES NUMBER_OF_BYTES

    Audio #1
    ID : 2
    Format : DTS
    Format/Info : Digital Theater Systems
    Mode : 16
    Format settings, Endianness : Big
    Codec ID : A_DTS
    Duration : 2h 45mn
    Bit rate mode : Constant
    Bit rate : 755 Kbps
    Channel(s) : 6 channels
    Channel positions : Front: L C R, Side: L R, LFE
    Sampling rate : 48.0 KHz
    Bit depth : 24 bits
    Compression mode : Lossy
    Stream size : 891 MiB (6%)
    Title : Thai DTS by Junjao
    Language : Thai
    Default : Yes
    Forced : Yes

    Audio #2
    ID : 3
    Format : DTS
    Format/Info : Digital Theater Systems
    Mode : 16
    Format settings, Endianness : Big
    Codec ID : A_DTS
    Duration : 2h 45mn
    Bit rate mode : Constant
    Bit rate : 1 509 Kbps
    Channel(s) : 6 channels
    Channel positions : Front: L C R, Side: L R, LFE
    Sampling rate : 48.0 KHz
    Bit depth : 24 bits
    Compression mode : Lossy
    Stream size : 1.74 GiB (13%)
    Title : Eng DTS
    Language : English
    Default : No
    Forced : No

    Audio #3
    ID : 4
    Format : AC-3
    Format/Info : Audio Coding 3
    Mode extension : CM (complete main)
    Format settings, Endianness : Big
    Codec ID : A_AC3
    Duration : 2h 45mn
    Bit rate mode : Constant
    Bit rate : 384 Kbps
    Channel(s) : 6 channels
    Channel positions : Front: L C R, Side: L R, LFE
    Sampling rate : 48.0 KHz
    Compression mode : Lossy
    Stream size : 454 MiB (3%)
    Title : Thai AC-3
    Language : Thai
    Default : No
    Forced : No

    Audio #4
    ID : 5
    Format : AC-3
    Format/Info : Audio Coding 3
    Mode extension : CM (complete main)
    Format settings, Endianness : Big
    Codec ID : A_AC3
    Duration : 2h 45mn
    Bit rate mode : Constant
    Bit rate : 384 Kbps
    Channel(s) : 6 channels
    Channel positions : Front: L C R, Side: L R, LFE
    Sampling rate : 48.0 KHz
    Compression mode : Lossy
    Stream size : 454 MiB (3%)
    Title : Eng AC-3
    Language : English
    Default : No
    Forced : No

    Text #1
    ID : 6
    Format : VobSub
    Muxing mode : zlib
    Codec ID : S_VOBSUB
    Codec ID/Info : Picture based subtitle format used on DVDs
    Title : Thai
    Language : Thai
    Default : No
    Forced : No

    Text #2
    ID : 7
    Format : VobSub
    Muxing mode : zlib
    Codec ID : S_VOBSUB
    Codec ID/Info : Picture based subtitle format used on DVDs
    Title : Thai Yellow
    Language : Thai
    Default : No
    Forced : No

    Text #3
    ID : 8
    Format : VobSub
    Muxing mode : zlib
    Codec ID : S_VOBSUB
    Codec ID/Info : Picture based subtitle format used on DVDs
    Title : Thai BIG [Out & Low]
    Language : Thai
    Default : No
    Forced : No

    Text #4
    ID : 9
    Format : VobSub
    Muxing mode : zlib
    Codec ID : S_VOBSUB
    Codec ID/Info : Picture based subtitle format used on DVDs
    Title : Thai Light Blue
    Language : Thai
    Default : No
    Forced : No

    Text #5
    ID : 10
    Format : PGS
    Muxing mode : zlib
    Codec ID : S_HDMV/PGS
    Codec ID/Info : Picture based subtitle format used on BDs/HD-DVDs
    Title : Thai PGS
    Language : Thai
    Default : No
    Forced : No

    Text #6
    ID : 11
    Format : PGS
    Muxing mode : zlib
    Codec ID : S_HDMV/PGS
    Codec ID/Info : Picture based subtitle format used on BDs/HD-DVDs
    Title : Thai PGS Yellow
    Language : Thai
    Default : No
    Forced : No

    Text #7
    ID : 12
    Format : PGS
    Muxing mode : zlib
    Codec ID : S_HDMV/PGS
    Codec ID/Info : Picture based subtitle format used on BDs/HD-DVDs
    Title : Thai PGS [Out & Low]
    Language : Thai
    Default : No
    Forced : No

    Text #8
    ID : 13
    Format : UTF-8
    Codec ID : S_TEXT/UTF8
    Codec ID/Info : UTF-8 Plain Text
    Title : Eng Forced
    Language : English
    Default : No
    Forced : No

    Text #9
    ID : 14
    Format : UTF-8
    Codec ID : S_TEXT/UTF8
    Codec ID/Info : UTF-8 Plain Text
    Title : Eng SRT
    Language : English
    Default : No
    Forced : No

    Text #10
    ID : 15
    Format : PGS
    Muxing mode : zlib
    Codec ID : S_HDMV/PGS
    Codec ID/Info : Picture based subtitle format used on BDs/HD-DVDs
    Title : Eng PGS
    Language : English
    Default : No
    Forced : No

    Text #11
    ID : 16
    Format : UTF-8
    Codec ID : S_TEXT/UTF8
    Codec ID/Info : UTF-8 Plain Text
    Title : Nederlands
    Language : Dutch
    Default : No
    Forced : No

    Menu #1
    00:00:00.000 : en:00:00:00.000
    00:06:51.578 : en:00:06:51.578
    00:14:33.581 : en:00:14:33.581
    00:21:37.463 : en:00:21:37.463
    00:30:13.395 : en:00:30:13.395
    00:38:45.990 : en:00:38:45.990
    00:46:08.057 : en:00:46:08.057
    00:51:39.513 : en:00:51:39.513
    00:59:09.337 : en:00:59:09.337
    01:07:48.648 : en:01:07:48.648
    01:15:14.552 : en:01:15:14.552
    01:23:25.292 : en:01:23:25.292
    01:29:14.724 : en:01:29:14.724
    01:37:16.956 : en:01:37:16.956
    01:44:35.436 : en:01:44:35.436
    01:51:25.053 : en:01:51:25.053
    01:57:47.936 : en:01:57:47.936
    02:04:48.481 : en:02:04:48.481
    02:12:35.865 : en:02:12:35.865
    02:21:04.206 : en:02:21:04.206
    02:28:48.670 : en:02:28:48.670
    02:37:09.629 : en:02:37:09.629

    Menu #2
    00:00:00.000 : en:Chapter 1
    00:06:51.703 : en:Chapter 2
    00:14:33.789 : en:Chapter 3
    00:21:37.546 : en:Chapter 4
    00:30:13.478 : en:Chapter 5
    00:38:46.073 : en:Chapter 6
    00:46:08.265 : en:Chapter 7
    00:51:39.596 : en:Chapter 8
    00:59:09.420 : en:Chapter 9
    01:07:48.731 : en:Chapter 10
    01:15:14.635 : en:Chapter 11
    01:23:25.375 : en:Chapter 12
    01:29:14.807 : en:Chapter 13
    01:37:17.039 : en:Chapter 14
    01:44:35.519 : en:Chapter 15
    01:51:25.303 : en:Chapter 16
    01:57:48.019 : en:Chapter 17
    02:04:48.647 : en:Chapter 18
    02:12:35.948 : en:Chapter 19
    02:21:04.330 : en:Chapter 20
    02:28:48.753 : en:Chapter 21
    02:37:09.712 : en:Chapter 22

    Menu #3
    00:00:00.000 : en:Chapter 1
    00:06:51.703 : en:Chapter 2
    00:14:33.789 : en:Chapter 3
    00:21:37.546 : en:Chapter 4
    00:30:13.478 : en:Chapter 5
    00:38:46.073 : en:Chapter 6
    00:46:08.265 : en:Chapter 7
    00:51:39.596 : en:Chapter 8
    00:59:09.420 : en:Chapter 9
    01:07:48.731 : en:Chapter 10
    01:15:14.635 : en:Chapter 11
    01:23:25.375 : en:Chapter 12
    01:29:14.807 : en:Chapter 13
    01:37:17.039 : en:Chapter 14
    01:44:35.519 : en:Chapter 15
    01:51:25.303 : en:Chapter 16
    01:57:48.019 : en:Chapter 17
    02:04:48.647 : en:Chapter 18
    02:12:35.948 : en:Chapter 19
    02:21:04.330 : en:Chapter 20
    02:28:48.753 : en:Chapter 21
    02:37:09.712 : en:Chapter 22



    1
    http://cornfile.com/xxac8jimg13z
    2
    http://cornfile.com/tujpc4e72ae9
    3
    http://cornfile.com/uswthgfmj5vy
    4
    http://cornfile.com/l8w9oavbepbh


    1
    http://fzfile.com/6tp5myqwhtfp
    2
    http://fzfile.com/1lx850dq0iqi
    3
    http://fzfile.com/ghhfz57w3yy0
    4
    http://fzfile.com/kl36pqswrlw7

  2. The Following 2 Users Say Thank You to Duckload.us For This Useful Post:

    bigbang06 (06-19-2017), Wesker_TOT (06-20-2017)

  3. #2
    Senior Member
    Join Date
    Dec 2013
    Posts
    730
    Thanks
    2,616
    Thanked 0 Times in 0 Posts
    ขอบคุณมากๆครับ

+ Reply to Thread

Thread Information

Users Browsing this Thread

There are currently 1 users browsing this thread. (0 members and 1 guests)

     

Posting Permissions

  • You may not post new threads
  • You may not post replies
  • You may not post attachments
  • You may not edit your posts