Gladiator - แกลดดิเอเตอร์ นักรบผู้กล้า ผ่าแผ่นดินทรราช

ประเภท/Type :
Action/Adventure
Drama/Romance
War

สร้างโดย/Studio : MCA / Universal

รายละเอียดเรื่องย่อ/Synopsis
เมื่อโอรสผู้ชั่วร้ายขึ้นครองบัลลังก์โดยมิชอบ ขับไล่และ.เหยียบให้ แม็กซีมัส.(รัสเซล โคลว์).
ขุนศึกผู้เกรียงไกรกลายเป็นทาส ความห้าวหาญของแม็กซีมัสในสนามประลอง นักสู้ ได้นำเขาสู่โคลอสเซี่ยมแห่งโรม และ.การต่อสู้ ที่มีชีวิตเป็นเดิมพันจึงเริ่มขึ้น แกลดดิเอเตอร์ คือเอภิมหาภาพยนตร์ในเรื่องราวการต่อสู้สุดระทึกและ. ยิ่งใหญ่แบบโรมัน ที่ถูกปลุกให้กระหึ่มอีกครั้งในศตวรรษที่ 21 โดยฝีมือของสุดยอดผู้กำกับ ริดรี่ย์ สก็อตต์.(Blade Runner, Alien).

Featuring both theitheatrical and extended versions in theiperfect picture and sound, Gladiator now sparkles like never before. Thefstunning historical epic follows Maximus Meridas, theibrave general who was forced into slavery, emerged as a gladiator, and defied an empire. Winneriofifive Academy Awards, including Best Picture and Best Actor, Gladiator is a magnificent combinationiofivivid action and extraordinary storytelling. Masterfully directed by Ridley Scott, and featuring a riveting performance from Russell Crowe, it is truly "a colossusiofirousing action".(Peter Travers, Rolling Stone)..

นักแสดง/Actors :
- Russell Crowe
- Joaquin Phoenix
- Connie Nielsen

ผู้กำกับ/Directors :
- Ridley Scott


General
Unique ID : 229637108552139444538658569034613401244 (0xACC27F953248D0DB85240627C8DC269C)
Complete name : D:auddownload[m-HD] Gladiator 2000 Remastered Extended BluRay 720p AC3 x264-CtHtsGladiator 2000 Remastered Extended BluRay 720p AC3 x264-CtHts.mkv
Format : Matroska
Format version : Version 2
File size : 3.45 GiB
Duration : 2h 50mn
Overall bit rate : 2 886 Kbps
Encoded date : UTC 2012-09-11 10:04:04
Writing application : mkvmerge v3.4.0 ( Rapunzel ) built on May 15 2010 09:38:20
Writing library : libebml v0.8.0 + libmatroska v0.9.0

Video
ID : 1
Format : AVC
Format/Info : Advanced Video Codec
Format profile : [email protected]
Format settings, CABAC : Yes
Format settings, ReFrames : 11 frames
Codec ID : V_MPEG4/ISO/AVC
Duration : 2h 50mn
Bit rate : 1 933 Kbps
Width : 1 280 pixels
Height : 544 pixels
Display aspect ratio : 2.35:1
Frame rate mode : Constant
Frame rate : 23.976 fps
Color space : YUV
Chroma subsampling : 4:2:0
Bit depth : 8 bits
Scan type : Progressive
Bits/(Pixel*Frame) : 0.116
Stream size : 2.31 GiB (67%)
Title : Gladiator 2000 Remastered Extended BluRay 720p AC3 x264-CtHts
Writing library : x264 core 115 r1947 b5a8ad7
Encoding settings : cabac=1 / ref=11 / deblock=1:-3:-3 / analyse=0x3:0x113 / me=umh / subme=9 / psy=1 / psy_rd=0.90:0.00 / mixed_ref=1 / me_range=16 / chroma_me=1 / trellis=2 / 8x8dct=1 / cqm=0 / deadzone=21,11 / fast_pskip=0 / chroma_qp_offset=-2 / threads=12 / sliced_threads=0 / nr=0 / decimate=0 / interlaced=0 / bluray_compat=0 / constrained_intra=0 / bframes=6 / b_pyramid=2 / b_adapt=1 / b_bias=0 / direct=3 / weightb=1 / open_gop=0 / weightp=2 / keyint=250 / keyint_min=24 / scenecut=40 / intra_refresh=0 / rc=crf / mbtree=0 / crf=24.0 / qcomp=0.80 / qpmin=0 / qpmax=69 / qpstep=4 / ip_ratio=1.10 / pb_ratio=1.10 / aq=1:0.90
Language : English
Default : Yes
Forced : No

Audio #1
ID : 2
Format : AC-3
Format/Info : Audio Coding 3
Mode extension : CM (complete main)
Format settings, Endianness : Big
Codec ID : A_AC3
Duration : 2h 50mn
Bit rate mode : Constant
Bit rate : 448 Kbps
Channel(s) : 6 channels
Channel positions : Front: L C R, Side: L R, LFE
Sampling rate : 48.0 KHz
Bit depth : 16 bits
Compression mode : Lossy
Stream size : 548 MiB (16%)
Title : Thai AC3 5.1 448 Kbps
Language : Thai
Default : Yes
Forced : No

Audio #2
ID : 3
Format : AC-3
Format/Info : Audio Coding 3
Mode extension : CM (complete main)
Format settings, Endianness : Big
Codec ID : A_AC3
Duration : 2h 50mn
Bit rate mode : Constant
Bit rate : 448 Kbps
Channel(s) : 6 channels
Channel positions : Front: L C R, Side: L R, LFE
Sampling rate : 48.0 KHz
Bit depth : 16 bits
Compression mode : Lossy
Stream size : 548 MiB (16%)
Title : English AC3 5.1 448 Kbps
Language : English
Default : No
Forced : No

Text #1
ID : 4
Format : VobSub
Muxing mode : zlib
Codec ID : S_VOBSUB
Codec ID/Info : The same subtitle format used on DVDs
Title : Thai 480p Low [BluRay Master]
Language : Thai
Default : Yes
Forced : No

Text #2
ID : 5
Format : VobSub
Muxing mode : zlib
Codec ID : S_VOBSUB
Codec ID/Info : The same subtitle format used on DVDs
Title : Thai 1080p Low [BluRay Master]
Language : Thai
Default : No
Forced : No

Text #3
ID : 6
Format : VobSub
Muxing mode : zlib
Codec ID : S_VOBSUB
Codec ID/Info : The same subtitle format used on DVDs
Title : Thai 1080p Original [BluRay Master]
Language : Thai
Default : No
Forced : No

Text #4
ID : 7
Format : UTF-8
Codec ID : S_TEXT/UTF8
Codec ID/Info : UTF-8 Plain Text
Title : English SRT
Language : English
Default : No
Forced : No

SS: https://www.mpic.ws/image/OqEP7




Quote:
เสียงซับไทยฉบับ Extended Edition จากท่านองครักษ์จั่น jukjunjao CtHts



Quote:
Modified by nfsphuket @ CtHts



http://cornfile.com/i64opq04z7mm

http://fzfile.com/wkkxxmrj9oav