+ Reply to Thread
Results 1 to 2 of 2
  1. #1
    Administrators Duckload.us's Avatar
    Join Date
    Dec 2010
    Posts
    84,508
    Thanks
    9
    Thanked 89,351 Times in 42,735 Posts

    Red face [จีน]-## Member Request ## DRAGONS FOREVER - มังกรหนวดทอง (1988) 1080P [เสียงไทย + จีน DTS] [บรรยายอังกฤษ + จีน] -Remux.DTS.1080p. [Modified]-[พากย์ไทย]

    cornfile.com



    เรื่องย่อ...
    เฉินหลง รับบท ทนายความ ว่าความให้กับเจ้าของธุรกิจประมงสาวซึ่งฟ้องร้องโรงง านใกล้เคียงว่าปล่อยน้ำเสีย ที่ศาลเขาพบรักเข้าอย่างจังกับ เมย์ พยานปากเอกของเจ้าของฟาร์มเลี้ยงปลาเฉินหลงจึงขอร้อง ให้ หง จิน เป่า ซึ่งรับบทเป็นเพื่อนของเขาช่วยเรื่องการซื้อขายฟาร์ม แต่เพื่อนตัวดีก็ดันไปหลงรักเจ้าของฟาร์มเสียนี่ เฉินหลงจึงว่าจ้าง หยวน เปียว ซึ่งรับบทเป็นหัวขโมยมืออาชีพให้ไปติดเครื่องดักฟังท ี่ห้องพักของเจ้าของฟาร์ม โดยไม่นัดแนะกันเสียก่อน จอมบู๊ทั้งสามจึงฟัดกันนัว แต่กว่าจะรู้ว่าสารเคมีนั้นคือสารเสพติด ทั้งสามก็ต้องรวมพลังเข้าปกป้องเจ้าของฟาร์มปลา


    General
    Complete name : DRAGONS FOREVER - มังกรหนวดทอง (1988) 1080P.mkv
    Format : Matroska
    Format version : Version 4 / Version 2
    File size : 19.2 GiB
    Duration : 1h 33mn
    Overall bit rate mode : Variable
    Overall bit rate : 29.3 Mbps
    Encoded date : UTC 2017-07-05 12:23:04
    Writing application : mkvmerge v6.9.1 ( Blue Panther ) 32bit built on Apr 18 2014 18:15:44
    Writing library : libebml v1.3.0 + libmatroska v1.4.1

    Video
    ID : 1
    Format : AVC
    Format/Info : Advanced Video Codec
    Format profile : [email protected]
    Format settings, CABAC : Yes
    Format settings, ReFrames : 4 frames
    Format settings, GOP : M=3, N=24
    Codec ID : V_MPEG4/ISO/AVC
    Duration : 1h 33mn
    Bit rate mode : Variable
    Maximum bit rate : 31.0 Mbps
    Width : 1 920 pixels
    Height : 1 080 pixels
    Display aspect ratio : 16:9
    Frame rate mode : Constant
    Frame rate : 24.000 fps
    Standard : NTSC
    Color space : YUV
    Chroma subsampling : 4:2:0
    Bit depth : 8 bits
    Scan type : Progressive
    Language : Chinese
    Default : Yes
    Forced : Yes
    Color range : Limited
    Color primaries : BT.709
    Transfer characteristics : BT.709
    Matrix coefficients : BT.709

    Audio #1
    ID : 2
    Format : DTS
    Format/Info : Digital Theater Systems
    Format profile : MA / Core
    Mode : 16
    Format settings, Endianness : Big
    Codec ID : A_DTS
    Duration : 1h 33mn
    Bit rate mode : Variable / Constant
    Bit rate : Unknown / 1 509 Kbps
    Channel(s) : 8 channels / 6 channels
    Channel positions : Front: L C R, Side: L R, Back: L R, LFE / Front: L C R, Side: L R, LFE
    Sampling rate : 48.0 KHz
    Frame rate : 93.750 fps (512 spf)
    Bit depth : 16 bits
    Compression mode : Lossless / Lossy
    Language : Chinese
    Default : Yes
    Forced : Yes

    Audio #2
    ID : 3
    Format : AC-3
    Format/Info : Audio Coding 3
    Mode extension : CM (complete main)
    Format settings, Endianness : Big
    Codec ID : A_AC3
    Duration : 1h 33mn
    Bit rate mode : Constant
    Bit rate : 640 Kbps
    Channel(s) : 6 channels
    Channel positions : Front: L C R, Side: L R, LFE
    Sampling rate : 48.0 KHz
    Frame rate : 31.250 fps (1536 spf)
    Compression mode : Lossy
    Stream size : 429 MiB (2%)
    Language : Chinese
    Default : No
    Forced : No

    Audio #3
    ID : 4
    Format : AC-3
    Format/Info : Audio Coding 3
    Mode extension : CM (complete main)
    Format settings, Endianness : Big
    Codec ID : A_AC3
    Duration : 1h 33mn
    Bit rate mode : Constant
    Bit rate : 384 Kbps
    Channel(s) : 6 channels
    Channel positions : Front: L C R, Side: L R, LFE
    Sampling rate : 48.0 KHz
    Frame rate : 31.250 fps (1536 spf)
    Compression mode : Lossy
    Stream size : 257 MiB (1%)
    Language : Thai
    Default : No
    Forced : No

    Text #1
    ID : 5
    Format : VobSub
    Muxing mode : zlib
    Codec ID : S_VOBSUB
    Codec ID/Info : Picture based subtitle format used on DVDs
    Language : English
    Default : Yes
    Forced : Yes

    Text #2
    ID : 6
    Format : PGS
    Muxing mode : zlib
    Codec ID : S_HDMV/PGS
    Codec ID/Info : Picture based subtitle format used on BDs/HD-DVDs
    Language : English
    Default : No
    Forced : No

    Text #3
    ID : 7
    Format : VobSub
    Muxing mode : zlib
    Codec ID : S_VOBSUB
    Codec ID/Info : Picture based subtitle format used on DVDs
    Language : Chinese
    Default : No
    Forced : No

    Text #4
    ID : 8
    Format : PGS
    Muxing mode : zlib
    Codec ID : S_HDMV/PGS
    Codec ID/Info : Picture based subtitle format used on BDs/HD-DVDs
    Language : Chinese
    Default : No
    Forced : No










    Download: cornfile
    http://cornfile.com/y0gdn2abuy7c
    Download: fzfile
    http://fzfile.com/jz8i2af9999y

  2. #2
    Senior Member teezasr400's Avatar
    Join Date
    Apr 2013
    Posts
    165
    Thanks
    0
    Thanked 1 Time in 1 Post
    ขอลิ่งโหลด Download: mekafile หน่อยครับ

+ Reply to Thread

Thread Information

Users Browsing this Thread

There are currently 1 users browsing this thread. (0 members and 1 guests)

     

Posting Permissions

  • You may not post new threads
  • You may not post replies
  • You may not post attachments
  • You may not edit your posts