+ Reply to Thread
Results 1 to 4 of 4
  1. #1
    Administrators Duckload.us's Avatar
    Join Date
    Dec 2010
    Posts
    104,433
    Thanks
    9
    Thanked 107,685 Times in 50,781 Posts

    Angry [จีน]-[* พากย์ไทยอินทรีย์ *] Tai-Chi Master (1993) | มังกรไท้เก๊ก คนไม่ยอมคน [1080p HQ] [พากย์ไทย 2.0 + จีน 5.1] [บรรยายไทย + อังกฤษ] [พากย์ไทย + ซับไทย PGS คมชัด]



    http://www.imdb.com/title/tt0108281/

    จินเป่าและเทียนเป่า เพื่อนรักศิษย์สำนักเดียวกัน ที่ช่วยเหลือกันมาตลอด แต่แล้วการอยากเป็นใหญ่ของเทียนเป่า ทำให้เขาต้องหักหลังจินเป่า โดยหลอกใช้งานฆ่าหลิวกงกง สุดท้ายเมื่อจินเป่ารู้ความจริงจนเกิดความจำเสื่อม และกลับมาฝึกวรยุทธ์ท่ามวยที่มีชื่อว่า ไท้เก็ก เพื่อการแก้แค้น

    Format : Matroska
    Format version : Version 2
    File size : 10.2 GiB
    Duration : 1 h 36 min
    Overall bit rate : 15.1 Mb/s
    Movie name : The.Tai-Chi.Master.1993.1080p.DD5.1.BluRay.x264-joythun
    Encoded date : UTC 2017-07-20 08:48:14
    Writing application : mkvmerge v5.8.0 ( No Sleep / Pillow ) built on Sep 2 2012 15:37:04
    Writing library : libebml v1.2.3 + libmatroska v1.3.0

    Video
    ID : 1
    Format : AVC
    Format/Info : Advanced Video Codec
    Format profile : [email protected]
    Format settings, CABAC : Yes
    Format settings, ReFrames : 4 frames
    Codec ID : V_MPEG4/ISO/AVC
    Duration : 1 h 36 min
    Bit rate : 14.0 Mb/s
    Width : 1 920 pixels
    Height : 1 080 pixels
    Display aspect ratio : 16:9
    Frame rate mode : Constant
    Frame rate : 23.976 FPS
    Color space : YUV
    Chroma subsampling : 4:2:0
    Bit depth : 8 bits
    Scan type : Progressive
    Bits/(Pixel*Frame) : 0.282
    Stream size : 9.29 GiB (91%)
    Title : The.Tai-Chi.Master.1993.1080p.DD5.1.BluRay.x264-joythun
    Writing library : x264 core 98 r1643 59a9e03
    Encoding settings : cabac=1 / ref=4 / deblock=1:-2:-2 / analyse=0x3:0x133 / me=umh / subme=10 / psy=1 / psy_rd=1.00:0.10 / mixed_ref=1 / me_range=64 / chroma_me=1 / trellis=2 / 8x8dct=1 / cqm=2 / deadzone=21,11 / fast_pskip=0 / chroma_qp_offset=-3 / threads=6 / sliced_threads=0 / nr=0 / decimate=0 / interlaced=0 / constrained_intra=0 / bframes=3 / b_pyramid=2 / b_adapt=2 / b_bias=0 / direct=3 / weightb=1 / weightp=2 / keyint=50 / keyint_min=5 / scenecut=40 / intra_refresh=0 / rc_lookahead=40 / rc=2pass / mbtree=1 / bitrate=14000 / ratetol=1.0 / qcomp=0.55 / qpmin=10 / qpmax=51 / qpstep=4 / cplxblur=20.0 / qblur=0.5 / vbv_maxrate=30000 / vbv_bufsize=30000 / ip_ratio=1.40 / aq=1:1.00 / nal_hrd=none
    Language : Chinese
    Default : Yes
    Forced : Yes

    Audio #1
    ID : 2
    Format : AC-3
    Format/Info : Audio Coding 3
    Mode extension : CM (complete main)
    Format settings, Endianness : Big
    Codec ID : A_AC3
    Duration : 1 h 36 min
    Bit rate mode : Constant
    Bit rate : 224 kb/s
    Channel(s) : 2 channels
    Channel positions : Front: L R
    Sampling rate : 48.0 kHz
    Frame rate : 31.250 FPS (1536 spf)
    Compression mode : Lossy
    Stream size : 155 MiB (1%)
    Title : THAI อินทรีย์ 2.0 @ 224 Kbps
    Language : Thai
    Default : Yes
    Forced : Yes

    Audio #2
    ID : 3
    Format : AC-3
    Format/Info : Audio Coding 3
    Mode extension : CM (complete main)
    Format settings, Endianness : Big
    Codec ID : A_AC3
    Duration : 1 h 36 min
    Bit rate mode : Constant
    Bit rate : 384 kb/s
    Channel(s) : 6 channels
    Channel positions : Front: L C R, Side: L R, LFE
    Sampling rate : 48.0 kHz
    Frame rate : 31.250 FPS (1536 spf)
    Compression mode : Lossy
    Stream size : 266 MiB (3%)
    Title : Mandarin 5.1 @ 384 kbps
    Language : Chinese
    Default : No
    Forced : No

    Audio #3
    ID : 4
    Format : AC-3
    Format/Info : Audio Coding 3
    Mode extension : CM (complete main)
    Format settings, Endianness : Big
    Codec ID : A_AC3
    Duration : 1 h 36 min
    Bit rate mode : Constant
    Bit rate : 448 kb/s
    Channel(s) : 6 channels
    Channel positions : Front: L C R, Side: L R, LFE
    Sampling rate : 48.0 kHz
    Frame rate : 31.250 FPS (1536 spf)
    Compression mode : Lossy
    Stream size : 310 MiB (3%)
    Title : Cantonese 5.1 @ 448 kbps
    Language : Chinese
    Default : No
    Forced : No

    Text #1
    ID : 5
    Format : VobSub
    Codec ID : S_VOBSUB
    Codec ID/Info : Picture based subtitle format used on DVDs
    Title : THAI 480p DVD Master
    Language : Thai
    Default : No
    Forced : No

    Text #2
    ID : 6
    Format : VobSub
    Codec ID : S_VOBSUB
    Codec ID/Info : Picture based subtitle format used on DVDs
    Title : THAI 1080p
    Language : Thai
    Default : Yes
    Forced : Yes

    Text #3
    ID : 7
    Format : VobSub
    Codec ID : S_VOBSUB
    Codec ID/Info : Picture based subtitle format used on DVDs
    Title : THAI 1080p Yellow
    Language : Thai
    Default : No
    Forced : No

    Text #4
    ID : 8
    Format : VobSub
    Codec ID : S_VOBSUB
    Codec ID/Info : Picture based subtitle format used on DVDs
    Title : THAI 1080p Out
    Language : Thai
    Default : No
    Forced : No

    Text #5
    ID : 9
    Format : PGS
    Codec ID : S_HDMV/PGS
    Codec ID/Info : Picture based subtitle format used on BDs/HD-DVDs
    Title : THAI PGS 1080p
    Language : Thai
    Default : No
    Forced : No

    Text #6
    ID : 10
    Format : PGS
    Codec ID : S_HDMV/PGS
    Codec ID/Info : Picture based subtitle format used on BDs/HD-DVDs
    Title : THAI PGS 1080p Out
    Language : Thai
    Default : No
    Forced : No

    Text #7
    ID : 11
    Format : UTF-8
    Codec ID : S_TEXT/UTF8
    Codec ID/Info : UTF-8 Plain Text
    Title : ENG SRT
    Language : English
    Default : No
    Forced : No










    Quote:
    พากย์ไทยอินทรีย์

    ซับไทยจาก DVD Master

    พากย์ไทย+ซับไทยมาสเตอร์เอื้อเฟื้อโดย eastboy



    http://cornfile.com/djxqmhrlu4do

  2. #2
    Senior Member
    Join Date
    Sep 2013
    Posts
    1,211
    Thanks
    0
    Thanked 1 Time in 1 Post
    น่าสะสมเป็นอย่างมาก

  3. #3
    Senior Member
    Join Date
    Sep 2013
    Posts
    1,211
    Thanks
    0
    Thanked 1 Time in 1 Post
    ขอ mekafile.com หน่อยสิครับ

  4. #4
    Senior Member
    Join Date
    Jun 2012
    Posts
    1,159
    Thanks
    0
    Thanked 1 Time in 1 Post
    โหลดไม่ได้แล้วครับ

+ Reply to Thread

Thread Information

Users Browsing this Thread

There are currently 1 users browsing this thread. (0 members and 1 guests)

     

Posting Permissions

  • You may not post new threads
  • You may not post replies
  • You may not post attachments
  • You may not edit your posts