+ Reply to Thread
Results 1 to 3 of 3
  1. #1
    Administrators Duckload.us's Avatar
    Join Date
    Dec 2010
    Posts
    96,809
    Thanks
    9
    Thanked 98,302 Times in 47,299 Posts

    Angry [ฝรั่ง]-[Mini-HD]-Predator 1-3 Trilogy (1987-2010) มหากาฬพรีเดเตอร์ ภาค 1-3 [Master] [1080p HQ.] [เสียงไทยมาสเตอร์ 5.1 + ENG DTS ] [บรรยายไทย+อังกฤษ] [เสียง + ซับ From BluRay MASTER + ซับไทย PGS คมชัดถึงใจ][.MKV]

    ***** Predator (1987) -มหากาฬพรีเดเตอร์ 1 *****

    นักแสดง: อาร์โนลด์ ชวาเซเน็กเกอร์, คาลล์ เวเธอร์, บิล ดุ๊ค, เจซซี่ เวนทูร่า, เอลปิเดีย คาร์ริโล่, ซอนนี่ แลนด์แฮม, ริชาร์ด ชาร์เวส,
    อาร์.จี. อาร์มสตรอง, เชน แบล็ค, เควิน ปีเตอร์ ฮอลล์ (รับบทเป็น Predator/นักบินเฮลิคอปเตอร์)
    ผู้กำกับ: จอห์น แม็คเทียร์แนน
    ผู้อำนวยการสร้าง: โจเอล ซิลเวอร์, ลอร์เรนซ์ กอร์ดอน และจอห์น เดวิส
    เรื่องย่อ: เรื่องราวของหน่วยปฏิบัติการเฉพาะกิจของกองทัพสหรัฐฯ ที่นำทีมโดยดัชท์ (ชวาเซเน็กเกอร์) ซึ่งนำทีมของเขาเข้าไปยังพื้นที่ของกลุ่มกองโจรในอเม ริกาใต้ โดยภารกิจนั้นก็คือ “การช่วยเหลือทีมคอมมานโด และกลุ่มเจ้าหน้าที่รัฐบาลอเมริกัน” ที่ถูกกลุ่มกองโจรฯจับตัวไป … แต่เมื่อภารกิจดำเนินไป พวกเขากลับถูกตามล่าโดยศัตรูที่มองไม่เห็น ที่กำลังตามเก็บพวกเขาทีละคนๆ อย่างโหดเหี้ยม!!
    Complete name : E:หนังไตรภาค1.Predator 1-3 Trilogy (1987-2010) มหากาฬพรีเดเตอร์ ภาค 1-31.Predator (1987) คนไม่ใช่คน ภาค 1{Super Mini-HD 1080p HQ} Predator 1987 BluRay 1080p DTS x264-จิ้งจอกเก้าหาง.mkv
    Format : Matroska
    Format version : Version 4 / Version 2
    File size : 4.27 GiB
    Duration : 1h 46mn
    Overall bit rate mode : Variable
    Overall bit rate : 5 730 Kbps
    Movie name : {Super Mini-HD 1080p HQ} Predator 1987 BluRay 1080p DTS x264-จิ้งจอกเก้าหาง
    Encoded date : UTC 2010-02-22 21:41:31
    Writing application : mkvmerge v5.9.0 ( On The Loose ) built on Dec 9 2012 15:37:01
    Writing library : libebml v1.3.0 + libmatroska v1.4.0

    Video
    ID : 1
    Format : AVC
    Format/Info : Advanced Video Codec
    Format profile : [email protected]
    Format settings, CABAC : Yes
    Format settings, ReFrames : 4 frames
    Codec ID : V_MPEG4/ISO/AVC
    Duration : 1h 46mn
    Bit rate mode : Variable
    Bit rate : 4 500 Kbps
    Maximum bit rate : 100.0 Mbps
    Width : 1 920 pixels
    Height : 1 040 pixels
    Display aspect ratio : 1.85:1
    Frame rate mode : Constant
    Frame rate : 23.976 fps
    Color space : YUV
    Chroma subsampling : 4:2:0
    Bit depth : 8 bits
    Scan type : Progressive
    Bits/(Pixel*Frame) : 0.094
    Stream size : 3.29 GiB (77%)
    Title : {Super Mini-HD 1080p HQ} Predator 1987 BluRay 1080p DTS x264-จิ้งจอกเก้าหาง
    Writing library : x264 core 130 r2273 b3065e6
    Encoding settings : cabac=1 / ref=4 / deblock=1:0:0 / analyse=0x3:0x133 / me=umh / subme=11 / psy=1 / psy_rd=1.00:0.15 / mixed_ref=1 / me_range=64 / chroma_me=1 / trellis=2 / 8x8dct=1 / cqm=0 / deadzone=21,11 / fast_pskip=1 / chroma_qp_offset=-3 / threads=16 / lookahead_threads=1 / sliced_threads=0 / nr=0 / decimate=1 / interlaced=0 / bluray_compat=0 / constrained_intra=0 / bframes=4 / b_pyramid=2 / b_adapt=2 / b_bias=0 / direct=3 / weightb=1 / open_gop=0 / weightp=2 / keyint=250 / keyint_min=23 / scenecut=40 / intra_refresh=0 / rc_lookahead=100 / rc=2pass / mbtree=1 / bitrate=4500 / ratetol=1.0 / qcomp=0.60 / qpmin=0 / qpmax=69 / qpstep=4 / cplxblur=20.0 / qblur=0.5 / vbv_maxrate=99999 / vbv_bufsize=99999 / nal_hrd=vbr / ip_ratio=1.40 / aq=1:1.00
    Language : English
    Default : Yes
    Forced : No

    Audio #1
    ID : 2
    Format : AC-3
    Format/Info : Audio Coding 3
    Mode extension : CM (complete main)
    Format settings, Endianness : Big
    Codec ID : A_AC3
    Duration : 1h 46mn
    Bit rate mode : Constant
    Bit rate : 448 Kbps
    Channel(s) : 6 channels
    Channel positions : Front: L C R, Side: L R, LFE
    Sampling rate : 48.0 KHz
    Bit depth : 16 bits
    Compression mode : Lossy
    Stream size : 342 MiB (8%)
    Title : [THAI AC3 FROM BLU-RAY MASTER]
    Language : Thai
    Default : Yes
    Forced : No

    Audio #2
    ID : 3
    Format : DTS
    Format/Info : Digital Theater Systems
    Mode : 16
    Format settings, Endianness : Big
    Codec ID : A_DTS
    Duration : 1h 46mn
    Bit rate mode : Constant
    Bit rate : 755 Kbps
    Channel(s) : 6 channels
    Channel positions : Front: L C R, Side: L R, LFE
    Sampling rate : 48.0 KHz
    Bit depth : 24 bits
    Compression mode : Lossy
    Stream size : 575 MiB (13%)
    Title : ENG DTS
    Language : English
    Default : No
    Forced : No

    Text #1
    ID : 4
    Format : VobSub
    Codec ID : S_VOBSUB
    Codec ID/Info : The same subtitle format used on DVDs
    Title : [SUB THAI 480P FROM BLU-RAY]
    Language : Thai
    Default : No
    Forced : No

    Text #2
    ID : 5
    Format : VobSub
    Codec ID : S_VOBSUB
    Codec ID/Info : The same subtitle format used on DVDs
    Title : [SUB THAI 1080P FROM BLU-RAY]
    Language : Thai
    Default : No
    Forced : No

    Text #3
    ID : 6
    Format : PGS
    Codec ID : S_HDMV/PGS
    Codec ID/Info : The same subtitle format used on BDs/HD-DVDs
    Title : [SUB THAI PGS FROM BLU-RAY]
    Language : Thai
    Default : No
    Forced : No

    Text #4
    ID : 7
    Format : PGS
    Codec ID : S_HDMV/PGS
    Codec ID/Info : The same subtitle format used on BDs/HD-DVDs
    Title : [SUB ENG PGS FROM BLU-RAY]
    Language : English
    Default : No
    Forced : No

    Text #5
    ID : 8
    Format : VobSub
    Codec ID : S_VOBSUB
    Codec ID/Info : The same subtitle format used on DVDs
    Title : ENG 480P
    Language : English
    Default : No
    Forced : No



    ***** Predator (1990) -มหากาฬพรีเดเตอร์ 2 *****

    เรื่องย่อ: Predator 2 คนไม่ใช่คน 2 บดเมืองมนุษย์
    ภาค 2 ของภาพยนตร์แอ๊คชั่นไซไฟที่เปลี่ยนฉากการล่าจากป่าสู ่เมืองหลวง ด้วยทีมนักแสดงหน้าใหม่ การปะทะกันระหว่างแก๊งค้ายาในแอล.เอ. ทำให้ตำรวจคิดว่าศพที่เสียชีวิตอย่างทารุณ คือ การห้ำหั่นของสมุนแต่ละแก๊ง ทว่าเมื่อสารวัตร แฮร์ริแกน ออกสืบด้วยตัวเอง เขาพบว่ามันคือฝีมือของนักฆ่าจากต่างดาว
    Complete name : E:หนังไตรภาค1.Predator 1-3 Trilogy (1987-2010) มหากาฬพรีเดเตอร์ ภาค 1-32.Predator 2 (1990) คนไม่ใช่คน 2 บดเมืองมนุษย์ ภาค 2{Super Mini-HD 1080p HQ} Predator 2 1990 BluRay 1080p DTS x264-จิ้งจอกเก้าหาง .mkv
    Format : Matroska
    Format version : Version 4 / Version 2
    File size : 4.21 GiB
    Duration : 1h 48mn
    Overall bit rate mode : Variable
    Overall bit rate : 5 578 Kbps
    Movie name : {Super Mini-HD 1080p HQ} Predator 2 1990 BluRay 1080p DTS x264-จิ้งจอกเก้าหาง
    Encoded date : UTC 2010-02-22 21:41:31
    Writing application : mkvmerge v5.9.0 ( On The Loose ) built on Dec 9 2012 15:37:01
    Writing library : libebml v1.3.0 + libmatroska v1.4.0

    Video
    ID : 1
    Format : AVC
    Format/Info : Advanced Video Codec
    Format profile : [email protected]
    Format settings, CABAC : Yes
    Format settings, ReFrames : 4 frames
    Codec ID : V_MPEG4/ISO/AVC
    Duration : 1h 48mn
    Bit rate mode : Variable
    Bit rate : 4 550 Kbps
    Maximum bit rate : 100.0 Mbps
    Width : 1 920 pixels
    Height : 1 042 pixels
    Display aspect ratio : 1.85:1
    Frame rate mode : Constant
    Frame rate : 23.976 fps
    Color space : YUV
    Chroma subsampling : 4:2:0
    Bit depth : 8 bits
    Scan type : Progressive
    Bits/(Pixel*Frame) : 0.095
    Stream size : 3.39 GiB (80%)
    Title : {Super Mini-HD 1080p HQ} Predator 2 1990 BluRay 1080p DTS x264-จิ้งจอกเก้าหาง
    Writing library : x264 core 130 r2273 b3065e6
    Encoding settings : cabac=1 / ref=4 / deblock=1:0:0 / analyse=0x3:0x133 / me=umh / subme=11 / psy=1 / psy_rd=1.00:0.15 / mixed_ref=1 / me_range=64 / chroma_me=1 / trellis=2 / 8x8dct=1 / cqm=0 / deadzone=21,11 / fast_pskip=1 / chroma_qp_offset=-3 / threads=16 / lookahead_threads=1 / sliced_threads=0 / nr=0 / decimate=1 / interlaced=0 / bluray_compat=0 / constrained_intra=0 / bframes=4 / b_pyramid=2 / b_adapt=2 / b_bias=0 / direct=3 / weightb=1 / open_gop=0 / weightp=2 / keyint=250 / keyint_min=23 / scenecut=40 / intra_refresh=0 / rc_lookahead=100 / rc=2pass / mbtree=1 / bitrate=4550 / ratetol=1.0 / qcomp=0.60 / qpmin=0 / qpmax=69 / qpstep=4 / cplxblur=20.0 / qblur=0.5 / vbv_maxrate=99999 / vbv_bufsize=99999 / nal_hrd=vbr / ip_ratio=1.40 / aq=1:1.00
    Language : English
    Default : Yes
    Forced : No

    Audio #1
    ID : 2
    Format : AC-3
    Format/Info : Audio Coding 3
    Mode extension : CM (complete main)
    Format settings, Endianness : Big
    Codec ID : A_AC3
    Duration : 1h 48mn
    Bit rate mode : Constant
    Bit rate : 224 Kbps
    Channel(s) : 2 channels
    Channel positions : Front: L R
    Sampling rate : 48.0 KHz
    Bit depth : 16 bits
    Compression mode : Lossy
    Stream size : 173 MiB (4%)
    Title : [THAI AC3 FROM BLU-RAY MASTER]
    Language : Thai
    Default : Yes
    Forced : No

    Audio #2
    ID : 3
    Format : DTS
    Format/Info : Digital Theater Systems
    Mode : 16
    Format settings, Endianness : Big
    Codec ID : A_DTS
    Duration : 1h 48mn
    Bit rate mode : Constant
    Bit rate : 755 Kbps
    Channel(s) : 6 channels
    Channel positions : Front: L C R, Side: L R, LFE
    Sampling rate : 48.0 KHz
    Bit depth : 24 bits
    Compression mode : Lossy
    Stream size : 583 MiB (14%)
    Title : eng dts
    Language : English
    Default : No
    Forced : No

    Text #1
    ID : 4
    Format : VobSub
    Codec ID : S_VOBSUB
    Codec ID/Info : The same subtitle format used on DVDs
    Title : [SUB THAI 480P FROM BLU-RAY]
    Language : Thai
    Default : No
    Forced : No

    Text #2
    ID : 5
    Format : VobSub
    Codec ID : S_VOBSUB
    Codec ID/Info : The same subtitle format used on DVDs
    Title : [SUB THAI 1080P FROM BLU-RAY]
    Language : Thai
    Default : No
    Forced : No

    Text #3
    ID : 6
    Format : PGS
    Codec ID : S_HDMV/PGS
    Codec ID/Info : The same subtitle format used on BDs/HD-DVDs
    Title : [SUB THAI PGS FROM BLU-RAY]
    Language : Thai
    Default : No
    Forced : No

    Text #4
    ID : 7
    Format : PGS
    Codec ID : S_HDMV/PGS
    Codec ID/Info : The same subtitle format used on BDs/HD-DVDs
    Title : [SUB ENG PGS FROM BLU-RAY]
    Language : English
    Default : No
    Forced : No

    Text #5
    ID : 8
    Format : VobSub
    Codec ID : S_VOBSUB
    Codec ID/Info : The same subtitle format used on DVDs
    Title : eng 480p
    Language : English
    Default : No
    Forced : No



    ***** Predators-มหากาฬพรีเดเตอร์ 3 *****

    รายละเอียดเรื่องย่อ/Synopsis
    “มหากาฬ พรีเดเตอร์ส” ความมันส์บทใหม่ของภาพยนตร์ชุด “พรีเดเตอร์” เอเดรียน โบรดี้ เป็น รอยซ์ ทหารรับจ้างที่ต้องนำทีมนักรบชั้นหัวกะทิตะลุยภารกิจ ลับบนดาวเคราะห์นอกโลกดวงหนึ่ง นอกเหนือจากนายแพทย์ผู้ไม่น่าไว้ใจ ทั้งหมดที่เหลือล้วนเป็นนักฆ่าเลือดเย็น อาทิ ทหารรับจ้าง ยากูซ่า นักโทษ และสมาชิกหน่วยเดนตาย ที่ถือเป็นสุดยอดนักล่าแห่งโลกมนุษย์ แต่เมื่อพวกเขาเริ่มถูกฆ่าโดยฝีมือมนุษย์ต่างดาวที่น ่ากลัวที่สุดเกินกว่าจะจินตนาการได้ มันแน่ชัดแล้วว่าตอนนี้พวกเขากำลังแปรสภาพจากผู้ล่าม าเป็น…เหยื่อ!
    Complete name : E:หนังไตรภาค1.Predator 1-3 Trilogy (1987-2010) มหากาฬพรีเดเตอร์ ภาค 1-33.Predators 3 (2010) มหากาฬพรีเดเตอร์ ภาค 3{Super Mini-HD 1080p HQ} Predators 2010 BluRay 1080p DTS x264-จิ้งจอกเก้าหาง .mkv
    Format : Matroska
    Format version : Version 4 / Version 2
    File size : 4.29 GiB
    Duration : 1h 46mn
    Overall bit rate mode : Variable
    Overall bit rate : 5 753 Kbps
    Movie name : {Super Mini-HD 1080p HQ} Predators 2010 BluRay 1080p DTS x264-จิ้งจอกเก้าหาง
    Encoded date : UTC 2010-02-22 21:41:31
    Writing application : mkvmerge v5.9.0 ( On The Loose ) built on Dec 9 2012 15:37:01
    Writing library : libebml v1.3.0 + libmatroska v1.4.0

    Video
    ID : 1
    Format : AVC
    Format/Info : Advanced Video Codec
    Format profile : [email protected]
    Format settings, CABAC : Yes
    Format settings, ReFrames : 4 frames
    Codec ID : V_MPEG4/ISO/AVC
    Duration : 1h 46mn
    Bit rate mode : Variable
    Bit rate : 4 500 Kbps
    Maximum bit rate : 100.0 Mbps
    Width : 1 920 pixels
    Height : 816 pixels
    Display aspect ratio : 2.35:1
    Frame rate mode : Constant
    Frame rate : 23.976 fps
    Color space : YUV
    Chroma subsampling : 4:2:0
    Bit depth : 8 bits
    Scan type : Progressive
    Bits/(Pixel*Frame) : 0.120
    Stream size : 3.31 GiB (77%)
    Title : {Super Mini-HD 1080p HQ} Predators 2010 BluRay 1080p DTS x264-จิ้งจอกเก้าหาง
    Writing library : x264 core 130 r2273 b3065e6
    Encoding settings : cabac=1 / ref=4 / deblock=1:0:0 / analyse=0x3:0x133 / me=umh / subme=11 / psy=1 / psy_rd=1.00:0.15 / mixed_ref=1 / me_range=64 / chroma_me=1 / trellis=2 / 8x8dct=1 / cqm=0 / deadzone=21,11 / fast_pskip=1 / chroma_qp_offset=-3 / threads=16 / lookahead_threads=1 / sliced_threads=0 / nr=0 / decimate=1 / interlaced=0 / bluray_compat=0 / constrained_intra=0 / bframes=4 / b_pyramid=2 / b_adapt=2 / b_bias=0 / direct=3 / weightb=1 / open_gop=0 / weightp=2 / keyint=250 / keyint_min=23 / scenecut=40 / intra_refresh=0 / rc_lookahead=100 / rc=2pass / mbtree=1 / bitrate=4500 / ratetol=1.0 / qcomp=0.60 / qpmin=0 / qpmax=69 / qpstep=4 / cplxblur=20.0 / qblur=0.5 / vbv_maxrate=99999 / vbv_bufsize=99999 / nal_hrd=vbr / ip_ratio=1.40 / aq=1:1.00
    Language : English
    Default : Yes
    Forced : No

    Audio #1
    ID : 2
    Format : AC-3
    Format/Info : Audio Coding 3
    Mode extension : CM (complete main)
    Format settings, Endianness : Big
    Codec ID : A_AC3
    Duration : 1h 46mn
    Bit rate mode : Constant
    Bit rate : 448 Kbps
    Channel(s) : 6 channels
    Channel positions : Front: L C R, Side: L R, LFE
    Sampling rate : 48.0 KHz
    Bit depth : 16 bits
    Compression mode : Lossy
    Stream size : 342 MiB (8%)
    Title : [THAI AC3 FROM BLU-RAY MASTER]
    Language : Thai
    Default : Yes
    Forced : No

    Audio #2
    ID : 3
    Format : DTS
    Format/Info : Digital Theater Systems
    Mode : 16
    Format settings, Endianness : Big
    Codec ID : A_DTS
    Duration : 1h 46mn
    Bit rate mode : Constant
    Bit rate : 755 Kbps
    Channel(s) : 6 channels
    Channel positions : Front: L C R, Side: L R, LFE
    Sampling rate : 48.0 KHz
    Bit depth : 24 bits
    Compression mode : Lossy
    Stream size : 577 MiB (13%)
    Title : eng dts
    Language : English
    Default : No
    Forced : No

    Text #1
    ID : 4
    Format : VobSub
    Codec ID : S_VOBSUB
    Codec ID/Info : The same subtitle format used on DVDs
    Title : [SUB THAI 480P FROM BLU-RAY]
    Language : Thai
    Default : No
    Forced : No

    Text #2
    ID : 5
    Format : VobSub
    Codec ID : S_VOBSUB
    Codec ID/Info : The same subtitle format used on DVDs
    Title : [SUB THAI 1080P FROM BLU-RAY]
    Language : Thai
    Default : No
    Forced : No

    Text #3
    ID : 6
    Format : PGS
    Codec ID : S_HDMV/PGS
    Codec ID/Info : The same subtitle format used on BDs/HD-DVDs
    Title : [SUB THAI PGS FROM BLU-RAY]
    Language : Thai
    Default : No
    Forced : No

    Text #4
    ID : 7
    Format : PGS
    Codec ID : S_HDMV/PGS
    Codec ID/Info : The same subtitle format used on BDs/HD-DVDs
    Title : [SUB THAI PGS FROM BLU-RAY] UNDER
    Language : Thai
    Default : No
    Forced : No

    Text #5
    ID : 8
    Format : PGS
    Codec ID : S_HDMV/PGS
    Codec ID/Info : The same subtitle format used on BDs/HD-DVDs
    Title : [SUB ENG PGS FROM BLU-RAY]
    Language : English
    Default : No
    Forced : No

    Text #6
    ID : 9
    Format : VobSub
    Codec ID : S_VOBSUB
    Codec ID/Info : The same subtitle format used on DVDs
    Title : ENG 480P
    Language : English
    Default : No
    Forced : No



    1
    http://cornfile.com/4hyx98oqjpah
    2
    http://cornfile.com/j5bkobch1c8h
    3
    http://cornfile.com/4060d1ytlv6x

  2. The Following User Says Thank You to Duckload.us For This Useful Post:

    noi54 (01-14-2018)

  3. #2
    Senior Member
    Join Date
    Dec 2011
    Posts
    1,932
    Thanks
    0
    Thanked 0 Times in 0 Posts
    ขอบคุณมากค่ะ เก็บสะสม

  4. #3
    Senior Member
    Join Date
    Jul 2012
    Posts
    5,757
    Thanks
    0
    Thanked 0 Times in 0 Posts
    ขอบคุณมากจ้า

+ Reply to Thread

Thread Information

Users Browsing this Thread

There are currently 1 users browsing this thread. (0 members and 1 guests)

     

Posting Permissions

  • You may not post new threads
  • You may not post replies
  • You may not post attachments
  • You may not edit your posts