+ Reply to Thread
Results 1 to 1 of 1
  1. #1
    Administrators Duckload.us's Avatar
    Join Date
    Dec 2010
    Posts
    80,376
    Thanks
    8
    Thanked 86,447 Times in 41,089 Posts

    Thumbs up [ฝรั่ง]-[*ตอนใหม่ร้อน ๆ พร้อมซับไทย*] Game of Thrones (2017) Season 7 Episode 4 [1080p WEB-DL] [เสียงอังกฤษ DDP5.1] [บรรยายไทย + อังกฤษ] [ซับไทยแปลคุณภาพจากท่านสุนัขป่าโลกันตร์] [ซับ PGS, IDX, SRT คมกริบ]

    cornfile.com






    เรื่องย่อ

    ศึกชิงบัลลังก์ที่น่าจะมาถึงช่วงเวลาแตกหักสำคัญแล้ว ว่าใครจะเป็นผู้ครอบครองบัลลังก์เหล็ก แต่ขณะที่ศึกชิงบัลลังก์กำลังคุกรุ่นนั้น ฤดูหนาวก็กำลังมา ที่อาจเป็นฤดูหนาวที่ยาวนานชั่วกัปชั่วกัลป์ที่จะฝ่า ด่านกำแพงเข้าสู่อาณาจักร หลังจากที่บรรพบุรุษชองชาวเวสเทอรอสเคยขับไล่ไปเมื่อ นานมาแล้ว





    นักแสดงนำ





    ข้อมูลซีรีส์

    General
    Unique ID : 241052981039006821347911736563685320233 (0xB5591D8D422B0729AB305A4230DEE629)
    Complete name : Game.of.Thrones.S07E04.1080p.AMZN.WEB-DL.DDP5.1.H.264-jaideejung007.mkv
    Format : Matroska
    Format version : Version 4 / Version 2
    File size : 3.07 GiB
    Duration : 51 min 21 s
    Overall bit rate mode : Variable
    Overall bit rate : 8 565 kb/s
    Movie name : Game.of.Thrones.S07E04.1080p.AMZN.WEB-DL.DDP5.1.H.264-jaideejung007
    Encoded date : UTC 2017-08-07 07:21:50
    Writing application : mkvmerge v14.0.0 ( Flow ) 64bit
    Writing library : libebml v1.3.4 + libmatroska v1.4.5

    Video
    ID : 1
    Format : AVC
    Format/Info : Advanced Video Codec
    Format profile : [email protected]
    Format settings, CABAC : Yes
    Format settings, ReFrames : 4 frames
    Codec ID : V_MPEG4/ISO/AVC
    Duration : 51 min 21 s
    Bit rate mode : Variable
    Bit rate : 7 858 kb/s
    Maximum bit rate : 15.0 Mb/s
    Width : 1 920 pixels
    Height : 1 080 pixels
    Display aspect ratio : 16:9
    Frame rate mode : Constant
    Frame rate : 23.976 (24000/1001) FPS
    Color space : YUV
    Chroma subsampling : 4:2:0
    Bit depth : 8 bits
    Scan type : Progressive
    Bits/(Pixel*Frame) : 0.158
    Stream size : 2.82 GiB (92%)
    Title : Game.of.Thrones.S07E04.1080p.AMZN.WEB-DL.DDP5.1.H.264-jaideejung007
    Language : English
    Default : Yes
    Forced : No
    Color range : Limited
    Color primaries : BT.709
    Transfer characteristics : BT.709
    Matrix coefficients : BT.709

    Audio
    ID : 2
    Format : E-AC-3
    Format/Info : Audio Coding 3
    Format settings, Endianness : Big
    Codec ID : A_EAC3

    Duration : 51 min 21 s
    Bit rate mode : Constant
    Bit rate : 640 kb/s
    Channel(s) : 6 channels
    Channel positions : Front: L C R, Side: L R, LFE
    Sampling rate : 48.0 kHz
    Frame rate : 187.500 FPS (256 spf)
    Compression mode : Lossy
    Delay relative to video : 7 ms
    Stream size : 235 MiB (7%)
    Title : Game.of.Thrones.S07E04.1080p.AMZN.WEB-DL.DDP5.1.H.264-jaideejung007
    Language : English
    Default : Yes
    Forced : No

    Text #1
    ID : 3
    Format : VobSub
    Codec ID : S_VOBSUB
    Codec ID/Info : Picture based subtitle format used on DVDs
    Duration : 49 min 15 s
    Bit rate : 1 778 b/s
    Count of elements : 492
    Stream size : 641 KiB (0%)
    Title : Thai 480p
    Language : Thai
    Default : No
    Forced : No

    Text #2
    ID : 4
    Format : VobSub
    Codec ID : S_VOBSUB
    Codec ID/Info : Picture based subtitle format used on DVDs
    Duration : 49 min 15 s
    Bit rate : 3 421 b/s
    Count of elements : 492
    Stream size : 1.21 MiB (0%)
    Title : Thai 720p
    Language : Thai
    Default : No
    Forced : No

    Text #3
    ID : 5
    Format : VobSub
    Codec ID : S_VOBSUB
    Codec ID/Info : Picture based subtitle format used on DVDs
    Duration : 49 min 15 s
    Bit rate : 6 298 b/s
    Count of elements : 492
    Stream size : 2.22 MiB (0%)
    Title : Thai 1080p
    Language : Thai
    Default : Yes
    Forced : Yes

    Text #4
    ID : 6
    Format : VobSub
    Codec ID : S_VOBSUB
    Codec ID/Info : Picture based subtitle format used on DVDs
    Duration : 49 min 15 s
    Bit rate : 5 630 b/s
    Count of elements : 492
    Stream size : 1.98 MiB (0%)
    Title : Thai 1080p Yellow
    Language : Thai
    Default : No
    Forced : No

    Text #5
    ID : 7
    Format : PGS
    Codec ID : S_HDMV/PGS
    Codec ID/Info : Picture based subtitle format used on BDs/HD-DVDs
    Duration : 49 min 15 s
    Bit rate : 25.3 kb/s
    Count of elements : 984
    Stream size : 8.92 MiB (0%)
    Title : Thai PGS
    Language : Thai
    Default : No
    Forced : No

    Text #6
    ID : 8
    Format : PGS
    Codec ID : S_HDMV/PGS
    Codec ID/Info : Picture based subtitle format used on BDs/HD-DVDs
    Duration : 49 min 15 s
    Bit rate : 25.3 kb/s
    Count of elements : 984
    Stream size : 8.92 MiB (0%)
    Title : Thai PGS OUT
    Language : Thai
    Default : No
    Forced : No

    Text #7
    ID : 9
    Format : UTF-8
    Codec ID : S_TEXT/UTF8
    Codec ID/Info : UTF-8 Plain Text
    Duration : 51 min 6 s
    Bit rate : 48 b/s
    Count of elements : 617
    Stream size : 18.0 KiB (0%)
    Language : English
    Default : No
    Forced : No

    Menu
    00:00:00.000 : en:Stay Tuned
    00:00:03.039 : en:Previously On
    00:01:28.039 : en:Studio Logo
    00:01:34.039 : en:Opening Credits
    00:03:22.039 : en:The Lannisters leave with their spoils Highgarden
    00:06:03.039 : en:Cersei and Tycho Nestoris discuss the repayment King s Landing
    00:07:39.039 : en:Littlefinger has a gift for Bran Winterfell
    00:11:30.039 : en:Arya arrives at home Winterfell
    00:17:23.039 : en:The Stark children are reunited Winterfell
    00:20:47.039 : en:Jon has something to show Daenerys Dragonstone
    00:25:43.039 : enaenerys receives the news Casterly Rock Dragonstone
    00:28:25.039 : en:Arya spars with Brienne Winterfell
    00:31:53.039 : enragonstone has an unexpected arrival Dragonstone
    00:35:50.039 : en:The Lannisters march is interrupted The Reach
    00:49:32.039 : en:End Credits
    00:50:50.039 : en:Next On
    00:51:20.039 : en:Online Extra






    ภาพตัวอย่าง แคปจากตัวไฟล์ซีรีส์





    ตัวอย่างภาพยนตร์






    เล่าสู่กันฟัง
    บรรยายไทยโดย สุนัขป่าโลกันตร์
    เรียบเรียง/พิสูจน์อักษรโดย jaideejung007

    แจ้งเพื่อทราบ: ซับไทยนี้ จะไม่มีการแปลย้อนความนะครับ (ช่วง 2 นาทีแรกของเรื่อง) แต่จะข้ามไปแปลเนื้อหาหลักเลย (แจ้งจากคุณสุนัขป่าโลกันตร์)

    แจ้งเพื่อทราบ 2: แจ้งเพื่อทราบ 2: ไฟล์นี้เป็นเสียงแบบ AC3+ (Source มาจากต่างประเทศ) ซึ่งเครื่องเล่นบางตัวอาจไม่รองรับ แต่ถ้าเปิดกับคอมพิวเตอร์ รองรับสมบูรณ์ 100% โปรดตรวจสอบให้ละเอียดก่อนดาวน์โหลด



    jaideejung007


    Download: filecondo
    http://www.filecondo.com/dl.php?f=be64971DEFpj
    Download: cornfile
    http://cornfile.com/s69xt0qnvu3n
    Download: mekafile
    http://www.mekafile.com/dl.php?f=aV9e77btAFDB

  2. The Following 3 Users Say Thank You to Duckload.us For This Useful Post:

    F2UMaH6398 (08-10-2017), prasert.pp (08-07-2017), Wesker_TOT (08-07-2017)

+ Reply to Thread

Thread Information

Users Browsing this Thread

There are currently 1 users browsing this thread. (0 members and 1 guests)

     

Posting Permissions

  • You may not post new threads
  • You may not post replies
  • You may not post attachments
  • You may not edit your posts