+ Reply to Thread
Results 1 to 3 of 3
  1. #1
    Administrators Duckload.us's Avatar
    Join Date
    Dec 2010
    Posts
    83,078
    Thanks
    9
    Thanked 88,046 Times in 42,079 Posts

    Question []-[Mini-HD] The Wall - Եѧᾧ (2017) [ŧҹӡѺͧ Doug Liman ҡ Edge of Tomorrow Mr. and Mrs. Smith][Thai Subtitle By Unknown][Soundtrack ]

    cornfile.com


    The Wall - Եѧᾧ (2017) [ŧҹӡѺͧ Doug Liman ҡ Edge of Tomorrow Mr. and Mrs. Smith][Thai Subtitle By Unknown]






    ͧ
    ᫤ ͧŷëԧʧѡ ѺáԨ׺ҵͫԧ䫵ҹҧ
    ͧҢ׹͹㹾ͤ ͻ׹Ҩź͹ ѧҡҼҹ
    駤ͫǡҵҤ Ǩ֧͡Թ䫵ҧ
    ҾǡҡѺ١ͫԧ蹧ҹ ١ԧʹ͹㹷
    ǹ᫤ҴҷӺѧ繡ᾧ ͡ʾѧء
    е͹ ᫤еͧǾԺءҧͷҪԵʹ ҡͻ׹ͧʹúҴ觹


    Video
    ID : 1
    Format : AVC
    Format/Info : Advanced Video Codec
    Format profile : [email protected]
    Format settings, CABAC : Yes
    Format settings, ReFrames : 5 frames
    Codec ID : V_MPEG4/ISO/AVC
    Duration : 1 h 29 min
    Bit rate : 4 459 kb/s
    Width : 1 920 pixels
    Height : 792 pixels
    Display aspect ratio : 2.40:1
    Frame rate mode : Constant
    Frame rate : 23.976 (24000/1001) FPS
    Color space : YUV
    Chroma subsampling : 4:2:0
    Bit depth : 8 bits
    Scan type : Progressive
    Bits/(Pixel*Frame) : 0.122
    Stream size : 2.80 GiB (90%)
    Title : The.Wall.2017.1080p.WEB-DL.DD5.1.H264-FGT
    Language : English
    Default : Yes
    Forced : No
    Color range : Limited
    Color primaries : BT.709
    Transfer characteristics : BT.709
    Matrix coefficients : BT.709

    Audio
    ID : 2
    Format : AC-3
    Format/Info : Audio Coding 3
    Format settings, Endianness : Big
    Codec ID : A_AC3
    Duration : 1 h 29 min
    Bit rate mode : Constant
    Bit rate : 384 kb/s
    Channel(s) : 6 channels
    Channel positions : Front: L C R, Side: L R, LFE
    Sampling rate : 48.0 kHz
    Frame rate : 31.250 FPS (1536 spf)
    Bit depth : 16 bits
    Compression mode : Lossy
    Delay relative to video : -42 ms
    Stream size : 247 MiB (8%)
    Title : The.Wall.2017.1080p.WEB-DL.DD5.1.H264-FGT
    Language : English
    Service kind : Complete Main
    Default : Yes
    Forced : No

    Subtitles
    English / Thai [Subtitle By Unknown]








    Subtitle By Unknown




    Download: cornfile
    http://cornfile.com/w42gqw36ece0
    Download: mekafile
    http://www.mekafile.com/dl.php?f=q45bcebtKtFZ

  2. The Following 4 Users Say Thank You to Duckload.us For This Useful Post:

    amorn wichian (08-12-2017), oretro (09-06-2017), prasert.pp (08-12-2017), PUNKROCK (08-12-2017)

  3. #2
    Senior Member PUNKROCK's Avatar
    Join Date
    Jul 2011
    Posts
    1,088
    Thanks
    917
    Thanked 0 Times in 0 Posts
    ͺФسѺ
    PUNKROCK NEVERDIE

  4. #3
    Senior Member
    Join Date
    Jul 2012
    Posts
    5,133
    Thanks
    0
    Thanked 0 Times in 0 Posts
    ͺسҡ

Thread Information

Users Browsing this Thread

There are currently 1 users browsing this thread. (0 members and 1 guests)

     

Posting Permissions

  • You may not post new threads
  • You may not post replies
  • You may not post attachments
  • You may not edit your posts