เรื่องย่อ...Death Race 1 (2008) ซิ่ง สั่ง ตาย 1

ความหิวกระหายของชาวโลกต่อเกมส์กีฬาสุดขั้วและการแข่ งขันแบบเรียลลิตี้กลายเป็นที่คลั่งไคล้ในจอทีวี บัดนี้ การแข่งขันที่ถือว่าสุดขั้วและหลุดโลกที่สุดถือกำเนิ ดขึ้น และผู้เข้าแข่งขันก็คือบรรดานักโทษในข้อหาฆาตกรรม รถแข่งที่เต็มไปด้วยกลโกง, ฆาตกรที่ถูกขังกรง และเหล่าเนวิเกเตอร์ ต้องมารวมตัวกันเพื่อสร้างสรรค์การแข่งขันที่เป็นดั่ งการเซ่นสังเวย กลายเป็นรายการทีวีที่มีเรตติ้งสูงยิ่งกว่าการแข่งขั นซูเปอร์โบวล์ กฎในการแข่งขันเดธเรซมีขึ้นอย่างง่ายๆ นั่นก็คือ ถ้าชนะในการแข่ง 5 ครั้ง คุณจะได้รับอิสรภาพ ถ้าแพ้ คุณจะกลายเป็นซากเละเทะกลางถนน ที่ถูกนำภาพไปเผยแพร่ทางอินเตอร์เน็ต
Complete name : D:หนังผีDeath Race 1-3 (UNRATED) Trilogy (2008-2012) ซิ่ง สั่ง ตาย 1-31.Death Race 1 (2008) ซิ่ง สั่ง ตาย 1Death.Race.2008.UNRATED.1080p.SuperHQ.THAIDTS.x26 4.BDMASTER-siambit.tv .mkv
Format : Matroska
Format version : Version 4 / Version 2
File size : 4.36 GiB
Duration : 1h 50mn
Overall bit rate : 5 640 Kbps
Movie name : www.siambit.me.com
Encoded date : UTC 2015-10-18 22:48:28
Writing application : mkvmerge v8.1.0 ( Psychedelic Postcard ) 32bit
Writing library : libebml v1.3.1 + libmatroska v1.4.2
Attachements : cover_land.png / cover.png

Video
ID : 1
Format : AVC
Format/Info : Advanced Video Codec
Format profile : [email protected]
Format settings, CABAC : Yes
Format settings, ReFrames : 4 frames
Codec ID : V_MPEG4/ISO/AVC
Duration : 1h 50mn
Bit rate : 4 109 Kbps
Width : 1 920 pixels
Height : 816 pixels
Display aspect ratio : 2.35:1
Frame rate mode : Constant
Frame rate : 23.976 fps
Color space : YUV
Chroma subsampling : 4:2:0
Bit depth : 8 bits
Scan type : Progressive
Bits/(Pixel*Frame) : 0.109
Stream size : 3.09 GiB (71%)
Title : Death.Race.2008.UNRATED.1080p.SuperHQ.THAIDTS.x264 .BDMASTER-siambit.tv
Writing library : x264 core 146 r2538 121396c
Encoding settings : cabac=1 / ref=4 / deblock=1:-3:-3 / analyse=0x3:0x113 / me=umh / subme=11 / psy=1 / psy_rd=1.00:0.00 / mixed_ref=1 / me_range=64 / chroma_me=1 / trellis=2 / 8x8dct=1 / cqm=0 / deadzone=21,11 / fast_pskip=1 / chroma_qp_offset=-2 / threads=24 / lookahead_threads=2 / sliced_threads=0 / nr=0 / decimate=1 / interlaced=0 / bluray_compat=0 / constrained_intra=0 / bframes=4 / b_pyramid=2 / b_adapt=1 / b_bias=0 / direct=1 / weightb=1 / open_gop=0 / weightp=1 / keyint=250 / keyint_min=23 / scenecut=40 / intra_refresh=0 / rc_lookahead=120 / rc=2pass / mbtree=1 / bitrate=4109 / ratetol=1.0 / qcomp=0.60 / qpmin=0 / qpmax=69 / qpstep=4 / cplxblur=20.0 / qblur=0.5 / vbv_maxrate=99999 / vbv_bufsize=99999 / nal_hrd=none / filler=0 / ip_ratio=1.40 / aq=1:1.00
Language : English
Default : Yes
Forced : No

Audio #1
ID : 2
Format : DTS
Format/Info : Digital Theater Systems
Mode : 16
Format settings, Endianness : Big
Codec ID : A_DTS
Duration : 1h 50mn
Bit rate mode : Constant
Bit rate : 768 Kbps
Channel(s) : 6 channels
Channel positions : Front: L C R, Side: L R, LFE
Sampling rate : 48.0 KHz
Bit depth : 24 bits
Compression mode : Lossy
Stream size : 608 MiB (14%)
Title : Thai DTS 5.1 755 Kbps [BluRay Master]
Language : Thai
Default : Yes
Forced : No

Audio #2
ID : 3
Format : DTS
Format/Info : Digital Theater Systems
Mode : 16
Format settings, Endianness : Big
Codec ID : A_DTS
Duration : 1h 50mn
Bit rate mode : Constant
Bit rate : 755 Kbps
Channel(s) : 6 channels
Channel positions : Front: L C R, Side: L R, LFE
Sampling rate : 48.0 KHz
Bit depth : 24 bits
Compression mode : Lossy
Stream size : 597 MiB (13%)
Title : Eng DTS 5.1 755 Kbps siambit.me
Language : English
Default : No
Forced : No

Text #1
ID : 4
Format : VobSub
Codec ID : S_VOBSUB
Codec ID/Info : The same subtitle format used on DVDs
Title : Thai 1080p Original [BluRay Master]
Language : Thai
Default : Yes
Forced : Yes

Text #2
ID : 5
Format : VobSub
Codec ID : S_VOBSUB
Codec ID/Info : The same subtitle format used on DVDs
Title : Thai 1080p Low [BluRay Master]
Language : Thai
Default : No
Forced : No

Text #3
ID : 6
Format : VobSub
Codec ID : S_VOBSUB
Codec ID/Info : The same subtitle format used on DVDs
Title : Thai 480p Low [BluRay Master]
Language : Thai
Default : No
Forced : No

Text #4
ID : 7
Format : UTF-8
Codec ID : S_TEXT/UTF8
Codec ID/Info : UTF-8 Plain Text
Title : SRT
Language : English
Default : No
Forced : No



เรื่องย่อ...Death Race 2 (2010) ซิ่ง สั่ง ตาย 2

ลู้ค กรอส สวมบทอาชญากรนาม แฟรงเกนสไตน์ ที่เจสัน สตาแธม เคยรับไว้ในภาคแรก กับเหตุการณ์ในอนาคตที่เศรษฐกิจอเมริกาพังทลาย และอาชญากรรมรุนแรงมากขึ้น และกลายเป็นจุดกำเนิดของของแฟรงเกนสไตน์ และเกมซิ่งระห่ำ
Complete name : D:หนังผีDeath Race 1-3 (UNRATED) Trilogy (2008-2012) ซิ่ง สั่ง ตาย 1-32.Death Race 2 (2010) ซิ่ง สั่ง ตาย 2Death.Race.2.2010.UNRATED.1080p.SuperHQ.THAIDTS.x 264.BDMASTER-siambit.tv .mkv
Format : Matroska
Format version : Version 4 / Version 2
File size : 4.36 GiB
Duration : 1h 40mn
Overall bit rate : 6 229 Kbps
Movie name : www.siambit.me.com
Encoded date : UTC 2015-10-19 00:49:09
Writing application : mkvmerge v8.1.0 ( Psychedelic Postcard ) 32bit
Writing library : libebml v1.3.1 + libmatroska v1.4.2
Attachements : cover_land.png / cover.png

Video
ID : 1
Format : AVC
Format/Info : Advanced Video Codec
Format profile : [email protected]
Format settings, CABAC : Yes
Format settings, ReFrames : 4 frames
Codec ID : V_MPEG4/ISO/AVC
Duration : 1h 40mn
Bit rate : 4 687 Kbps
Width : 1 920 pixels
Height : 1 080 pixels
Display aspect ratio : 16:9
Frame rate mode : Constant
Frame rate : 23.976 fps
Color space : YUV
Chroma subsampling : 4:2:0
Bit depth : 8 bits
Scan type : Progressive
Bits/(Pixel*Frame) : 0.094
Stream size : 3.21 GiB (74%)
Title : Death.Race.2.2010.UNRATED.1080p.SuperHQ.THAIDTS.x2 64.BDMASTER-siambit.tv
Writing library : x264 core 146 r2538 121396c
Encoding settings : cabac=1 / ref=4 / deblock=1:-3:-3 / analyse=0x3:0x113 / me=umh / subme=11 / psy=1 / psy_rd=1.00:0.00 / mixed_ref=1 / me_range=64 / chroma_me=1 / trellis=2 / 8x8dct=1 / cqm=0 / deadzone=21,11 / fast_pskip=1 / chroma_qp_offset=-2 / threads=24 / lookahead_threads=2 / sliced_threads=0 / nr=0 / decimate=1 / interlaced=0 / bluray_compat=0 / constrained_intra=0 / bframes=4 / b_pyramid=2 / b_adapt=1 / b_bias=0 / direct=1 / weightb=1 / open_gop=0 / weightp=1 / keyint=250 / keyint_min=23 / scenecut=40 / intra_refresh=0 / rc_lookahead=120 / rc=2pass / mbtree=1 / bitrate=4687 / ratetol=1.0 / qcomp=0.60 / qpmin=0 / qpmax=69 / qpstep=4 / cplxblur=20.0 / qblur=0.5 / vbv_maxrate=99999 / vbv_bufsize=99999 / nal_hrd=none / filler=0 / ip_ratio=1.40 / aq=1:1.00
Language : English
Default : Yes
Forced : No

Audio #1
ID : 2
Format : DTS
Format/Info : Digital Theater Systems
Mode : 16
Format settings, Endianness : Big
Codec ID : A_DTS
Duration : 1h 40mn
Bit rate mode : Constant
Bit rate : 768 Kbps
Channel(s) : 6 channels
Channel positions : Front: L C R, Side: L R, LFE
Sampling rate : 48.0 KHz
Bit depth : 16 bits
Compression mode : Lossy
Stream size : 551 MiB (12%)
Title : Thai DTS 5.1 755 Kbps [BluRay Master]
Language : Thai
Default : Yes
Forced : No

Audio #2
ID : 3
Format : DTS
Format/Info : Digital Theater Systems
Mode : 16
Format settings, Endianness : Big
Codec ID : A_DTS
Duration : 1h 40mn
Bit rate mode : Constant
Bit rate : 755 Kbps
Channel(s) : 6 channels
Channel positions : Front: L C R, Side: L R, LFE
Sampling rate : 48.0 KHz
Bit depth : 24 bits
Compression mode : Lossy
Stream size : 541 MiB (12%)
Title : Eng DTS 5.1 755 Kbps siambit.me
Language : English
Default : No
Forced : No

Text #1
ID : 4
Format : VobSub
Codec ID : S_VOBSUB
Codec ID/Info : The same subtitle format used on DVDs
Title : Thai 1080p Original [BluRay Master]
Language : Thai
Default : Yes
Forced : Yes

Text #2
ID : 5
Format : VobSub
Codec ID : S_VOBSUB
Codec ID/Info : The same subtitle format used on DVDs
Title : Thai 1080p Low [BluRay Master]
Language : Thai
Default : No
Forced : No

Text #3
ID : 6
Format : VobSub
Codec ID : S_VOBSUB
Codec ID/Info : The same subtitle format used on DVDs
Title : Thai 480p Low [BluRay Master]
Language : Thai
Default : No
Forced : No

Text #4
ID : 7
Format : VobSub
Codec ID : S_VOBSUB
Codec ID/Info : The same subtitle format used on DVDs
Title : English 1080p Original [BluRay Master]
Language : English
Default : No
Forced : No

Text #5
ID : 8
Format : UTF-8
Codec ID : S_TEXT/UTF8
Codec ID/Info : UTF-8 Plain Text
Title : English SRT
Language : English
Default : No
Forced : No



เรื่องย่อ...

กลับมาอีกครั้งกับความโหดเป็นรูปแบบแปลกและสถานที่เป ลื่ยนแปลงใหม่ เรื่องราวนักโทษแข่งขันกับนักโทษด้วยกัน ผู้ชนะจะได้เสรีภาพ Frankenstein เป็นตัวเอกของเรื่อง การแข่งขันครั้งใหม่เขาได้รับการฝึกฝนมาก่อน เพื่อรับมือกับฝ่ายตรงข้ามสุดหินที่สุดของเขา เพื่อให้ตัวเองและทีมงานของเขายังมีชีวิตอยู่ในการแข ่งขันในทะเลทราย
Complete name : D:หนังผีDeath Race 1-3 (UNRATED) Trilogy (2008-2012) ซิ่ง สั่ง ตาย 1-33.Death Race 3 Inferno (2012) ซิ่งสั่งตาย 3Death.Race.3.Inferno.2013.UNRATED.1080p.SuperHQ.T HAIDTS.x264.BDMASTER-siambit.tv .mkv
Format : Matroska
Format version : Version 4 / Version 2
File size : 4.39 GiB
Duration : 1h 45mn
Overall bit rate : 5 976 Kbps
Movie name : www.siambit.me.com
Encoded date : UTC 2015-10-19 23:13:23
Writing application : mkvmerge v8.1.0 ( Psychedelic Postcard ) 32bit
Writing library : libebml v1.3.1 + libmatroska v1.4.2
Attachements : cover_land.png / cover.png

Video
ID : 1
Format : AVC
Format/Info : Advanced Video Codec
Format profile : [email protected]
Format settings, CABAC : Yes
Format settings, ReFrames : 4 frames
Codec ID : V_MPEG4/ISO/AVC
Duration : 1h 45mn
Bit rate : 4 374 Kbps
Width : 1 920 pixels
Height : 1 080 pixels
Display aspect ratio : 16:9
Frame rate mode : Constant
Frame rate : 23.976 fps
Color space : YUV
Chroma subsampling : 4:2:0
Bit depth : 8 bits
Scan type : Progressive
Bits/(Pixel*Frame) : 0.088
Stream size : 3.19 GiB (73%)
Title : Death.Race.3.Inferno.2013.UNRATED.1080p.SuperHQ.TH AIDTS.x264.BDMASTER-siambit.tv
Writing library : x264 core 146 r2538 121396c
Encoding settings : cabac=1 / ref=4 / deblock=1:-3:-3 / analyse=0x3:0x113 / me=umh / subme=11 / psy=1 / psy_rd=1.00:0.00 / mixed_ref=1 / me_range=64 / chroma_me=1 / trellis=2 / 8x8dct=1 / cqm=0 / deadzone=21,11 / fast_pskip=1 / chroma_qp_offset=-2 / threads=24 / lookahead_threads=2 / sliced_threads=0 / nr=0 / decimate=1 / interlaced=0 / bluray_compat=0 / constrained_intra=0 / bframes=4 / b_pyramid=2 / b_adapt=1 / b_bias=0 / direct=1 / weightb=1 / open_gop=0 / weightp=1 / keyint=250 / keyint_min=23 / scenecut=40 / intra_refresh=0 / rc_lookahead=120 / rc=2pass / mbtree=1 / bitrate=4374 / ratetol=1.0 / qcomp=0.60 / qpmin=0 / qpmax=69 / qpstep=4 / cplxblur=20.0 / qblur=0.5 / vbv_maxrate=99999 / vbv_bufsize=99999 / nal_hrd=none / filler=0 / ip_ratio=1.40 / aq=1:1.00
Language : English
Default : Yes
Forced : No

Audio #1
ID : 2
Format : DTS
Format/Info : Digital Theater Systems
Mode : 16
Format settings, Endianness : Big
Codec ID : A_DTS
Duration : 1h 45mn
Bit rate mode : Constant
Bit rate : 768 Kbps
Channel(s) : 6 channels
Channel positions : Front: L C R, Side: L R, LFE
Sampling rate : 48.0 KHz
Bit depth : 24 bits
Compression mode : Lossy
Stream size : 578 MiB (13%)
Title : Thai DTS 5.1 755 Kbps [BluRay Master]
Language : Thai
Default : Yes
Forced : No

Audio #2
ID : 3
Format : DTS
Format/Info : Digital Theater Systems
Mode : 16
Format settings, Endianness : Big
Codec ID : A_DTS
Duration : 1h 45mn
Bit rate mode : Constant
Bit rate : 755 Kbps
Channel(s) : 6 channels
Channel positions : Front: L C R, Side: L R, LFE
Sampling rate : 48.0 KHz
Bit depth : 24 bits
Compression mode : Lossy
Stream size : 568 MiB (13%)
Title : Eng DTS 5.1 755 Kbps siambit.me
Language : English
Default : No
Forced : No

Text #1
ID : 4
Format : VobSub
Codec ID : S_VOBSUB
Codec ID/Info : The same subtitle format used on DVDs
Title : Thai 1080p Original [BluRay Master]
Language : Thai
Default : Yes
Forced : Yes

Text #2
ID : 5
Format : VobSub
Codec ID : S_VOBSUB
Codec ID/Info : The same subtitle format used on DVDs
Title : Thai 1080p Under [BluRay Master]
Language : Thai
Default : No
Forced : No

Text #3
ID : 6
Format : VobSub
Codec ID : S_VOBSUB
Codec ID/Info : The same subtitle format used on DVDs
Title : Thai 480p Under [BluRay Master]
Language : Thai
Default : No
Forced : No

Text #4
ID : 7
Format : VobSub
Codec ID : S_VOBSUB
Codec ID/Info : The same subtitle format used on DVDs
Title : English 1080p Original [BluRay Master]
Language : English
Default : No
Forced : No

Text #5
ID : 8
Format : PGS
Codec ID : S_HDMV/PGS
Codec ID/Info : The same subtitle format used on BDs/HD-DVDs
Title : Thai PGS [BluRay Master]
Language : Thai
Default : No
Forced : No

Text #6
ID : 9
Format : PGS
Codec ID : S_HDMV/PGS
Codec ID/Info : The same subtitle format used on BDs/HD-DVDs
Title : English PGS [BluRay Master]
Language : English
Default : No
Forced : No

Text #7
ID : 10
Format : UTF-8
Codec ID : S_TEXT/UTF8
Codec ID/Info : UTF-8 Plain Text
Title : English SRT
Language : English
Default : No
Forced : No



Download: cornfile
1
http://cornfile.com/km8r1w42ihnx
2
http://cornfile.com/u48y3av0hblg
3
http://cornfile.com/fqnd57m8oolh

Download: mekafile
1
http://www.mekafile.com/dl.php?f=ZB1724btKFTG
2
http://www.mekafile.com/dl.php?f=vs0ccabtKG77
3
http://www.mekafile.com/dl.php?f=3beedcbtKGeG