MediaInfo

Format : Matroska
Format version : Version 4 / Version 2
File size : 3.29 GiB
Duration : 1 h 41 min
Overall bit rate : 4 629 kb/s
Movie name : EVO
Encoded date : UTC 2017-08-12 00:36:22
Writing application : mkvmerge v13.0.0 ( The Juggler ) 64bit
Writing library : libebml v1.3.4 + libmatroska v1.4.5

Video
ID : 1
Format : AVC
Format/Info : Advanced Video Codec
Format profile : [email protected]
Format settings, CABAC : No
Format settings, RefFrames : 2 frames
Codec ID : V_MPEG4/ISO/AVC
Duration : 1 h 41 min
Bit rate : 4 050 kb/s
Width : 1 280 pixels
Height : 530 pixels
Display aspect ratio : 2.40:1
Frame rate mode : Constant
Frame rate : 23.976 (24000/1001) FPS
Color space : YUV
Chroma subsampling : 4:2:0
Bit depth : 8 bits
Scan type : Progressive
Bits/(Pixel*Frame) : 0.249
Stream size : 2.88 GiB (87%)
Language : English
Default : Yes
Forced : No
Color range : Limited
Color primaries : BT.709
Transfer characteristics : BT.709
Matrix coefficients : BT.709

Audio #1
ID : 2
Format : AC-3
Format/Info : Audio Coding 3
Format settings, Endianness : Big
Codec ID : A_AC3
Duration : 1 h 41 min
Bit rate mode : Constant
Bit rate : 384 kb/s
Channel(s) : 6 channels
Channel positions : Front: L C R, Side: L R, LFE
Sampling rate : 48.0 kHz
Frame rate : 31.250 FPS (1536 SPF)
Bit depth : 16 bits
Compression mode : Lossy
Stream size : 279 MiB (8%)
Language : English
Service kind : Complete Main
Default : Yes
Forced : No

Audio #2
ID : 3
Format : AAC
Format/Info : Advanced Audio Codec
Format profile : LC
Codec ID : A_AAC
Duration : 1 h 41 min
Bit rate : 192 kb/s
Channel(s) : 2 channels
Channel positions : Front: L R
Sampling rate : 48.0 kHz
Frame rate : 46.875 FPS (1024 SPF)
Compression mode : Lossy
Stream size : 140 MiB (4%)
Language : English
Default : No
Forced : No

Text #1
ID : 4
Format : UTF-8
Codec ID : S_TEXT/UTF8
Codec ID/Info : UTF-8 Plain Text
Duration : 1 h 33 min
Bit rate : 106 b/s
Count of elements : 986
Stream size : 72.9 KiB (0%)
Language : Thai
Default : Yes
Forced : No

Text #2
ID : 5
Format : UTF-8
Codec ID : S_TEXT/UTF8
Codec ID/Info : UTF-8 Plain Text
Duration : 1 h 33 min
Bit rate : 44 b/s
Count of elements : 986
Stream size : 30.3 KiB (0%)
Language : English
Default : No
Forced : No

สำหรับ First Kill นำแสดงโดย เฮย์เดน คริสเตนเซน (Star Wars, Jumper) และ บรูซ วิลลิส (Die Hard, The Sixth Sense), เกธิน แอนโธนี่ (We Are Monster), มากี อวิล่า (Caf้ Society) โดยมี สตีเฟ่น ซี. มิลเลอร์ (Marauders) นั่งแท่นผู้กำกับ มีกำหนดเข้าฉายในสหรัฐอเมริกา 21 กรกฎาคม 2017






เฮย์เดน คริสเตนเซน ปะทะ บรูซ วิลลิส ในตัวอย่างแรกของ First Kill หนังแอ็คชั่น-ระทึกขวัญ

ถือเป็นอีกหนึ่งภาพยนตร์ แอ็คชั่น-ระทึกขวัญ ที่น่าสนใจกับ First Kill ที่ได้ดาราดังอย่าง บรูซ วิลลิส (Bruce Willis) และ เฮย์เดน คริสเตนเซน (Hayden Christensen) มาเชือดเฉือน ล่าสุด 9 มิถุนายน 2017 Lionsgate Movies ได้ปล่อยตัวอย่างแรกออกมาให้ชมกันแล้ว ชวนให้เอาใจช่วยตัวเอกว่าจะหาทางช่วยลูกชายได้อย่างไ ร เพราะต้องรับมือกับทั้งโจรที่ลักพาตัวไป รวมถึงตำรวจจอมเก๋าที่ตามติดหาพิรุธเกี่ยวกับคดีนี้

ความเข้มข้นของ First Kill เกิดขึ้นเมื่อ เฮย์เดน คริสเตนเซน รับบท วิล โบรกเกอร์วอลสตรีทที่ประสบความสำเร็จ ตัดสินใจพาครอบครัวไปใช้เวลาท่องเที่ยวกันที่กระท่อม กลางป่าซึ่งเข้าโตมาในวัยเด็ก แต่เขาและลูกชายต้องมาเห็นเหตุการณ์ฆาตกรรมของโจรปล้ นธนาคาร หนำซ้ำโจรยังฉวยโอกาสลักพาตัวลูกชายไป ทำให้เขาต้องจำใจช่วยเหลือผู้ร้ายที่กำลังถูกหัวหน้า ตำรวจชุดสืบสวนอย่าง บรูซ วิลลิส ไล่ล่าตัว พร้อมต้องพยายามไปขนเงินที่ปล้นมาแลกเปลี่ยนกับชีวิต ของลูกชาย และยากที่จะคาดเดาว่าเหตุการณ์นี้จะจบอย่างไร








Download: cornfile
http://cornfile.com/t9u1xiqabg8s
Download: mekafile
http://www.mekafile.com/dl.php?f=TYa823btP4TN