+ Reply to Thread
Results 1 to 2 of 2
  1. #1
    Administrators Duckload.us's Avatar
    Join Date
    Dec 2010
    Posts
    81,768
    Thanks
    9
    Thanked 87,315 Times in 41,639 Posts

    Cool [ฝรั่ง] Game of Thrones Season 7 (Episode 06 : Beyond the Wall) Web-DL 1080p [เสียงอังกฤษ 5.1 + ซับไทยจาก HBO คมชัดแบบ PGS+IDX 1080p] (ฉบับเต็มไม่มีตัด ไม่เซ็นเซอร์)-Encode.H.264.1080p. [From HD-TV]-[Soundtrack บรรยายไทย]

    cornfile.com










    เรื่องย่อ
    มหาศึกชิงบัลลังก์ (อังกฤษ: Game of Thrones) เป็นภาพยนตร์ชุดทางโทรทัศน์แนวแฟนตาซีย้อนยุคของสถาน ีโทรทัศน์เอชบีโอ สร้างสรรค์โดยเดวิด เบนิออฟฟ์ และดี. บี. ไวส์ ดัดแปลงจากหนังสือเล่มที่หนึ่งของชุดหนังสือนิยายขาย ดีของจอร์จ อาร์. อาร์. มาร์ติน ชุด มหาศึกชิงบัลลังก์ เรื่อง เกมล่าบัลลังก์ ฉายครั้งแรกในสหรัฐอเมริกา 17 เมษายน 2554 ภาพยนตร์ชุดนี้ได้รับเสียงตอบรับอย่างดีมาก มีผู้ติดตามเป็นจำนวนมาก และได้รับการอนุมัติให้ทำฤดูกาลที่ 2 ต่อจากฤดูกาลแรก ในวันที่ 19 เมษายน 2554 สองวันหลังจากฉายตอนแรก




    Complete name : Game.of.Thrones.S07E06.Beyond.the.Wall.1080p.WEB-DL.DDP5.1.H.264-vicvicky.mkv
    Format : Matroska
    Format version : Version 4 / Version 2
    File size : 4.76 GiB
    Duration : 1 h 12 min
    Overall bit rate mode : Variable
    Overall bit rate : 9 413 kb/s
    Encoded date : UTC 2017-08-21 06:25:13
    Writing application : mkvmerge v6.2.0 ( Promised Land ) built on Apr 28 2013 12:22:01
    Writing library : libebml v1.3.0 + libmatroska v1.4.0

    Video
    ID : 1
    Format : AVC
    Format/Info : Advanced Video Codec
    Format profile : [email protected]
    Format settings, CABAC : Yes
    Format settings, RefFrames : 4 frames
    Codec ID : V_MPEG4/ISO/AVC
    Duration : 1 h 12 min
    Bit rate mode : Variable
    Bit rate : 8 586 kb/s
    Maximum bit rate : 15.0 Mb/s
    Width : 1 920 pixels
    Height : 1 080 pixels
    Display aspect ratio : 16:9
    Frame rate mode : Constant
    Frame rate : 23.976 (24000/1001) FPS
    Color space : YUV
    Chroma subsampling : 4:2:0
    Bit depth : 8 bits
    Scan type : Progressive
    Bits/(Pixel*Frame) : 0.173
    Stream size : 4.34 GiB (91%)
    Default : Yes
    Forced : No
    Color range : Limited
    Color primaries : BT.709
    Transfer characteristics : BT.709
    Matrix coefficients : BT.709
    Statistics Tags Issue : mkvmerge v7.6.0 ( Garden of Dreams ) 64bit built on Feb 8 2015 13:04:34 2017-08-21 01:07:00 / mkvmerge v6.2.0 ( Promised Land ) built on Apr 28 2013 12:22:01 2017-08-21 06:25:13
    FromStats_BitRate : 8733628
    FromStats_Duration : 01:12:22.130000000
    FromStats_FrameCount : 104107
    FromStats_StreamSize : 4740318962

    Audio
    ID : 2
    Format : E-AC-3
    Format/Info : Enhanced Audio Coding 3
    Format settings, Endianness : Big
    Codec ID : A_EAC3
    Duration : 1 h 12 min
    Bit rate mode : Constant
    Bit rate : 640 kb/s
    Channel(s) : 6 channels
    Channel positions : Front: L C R, Side: L R, LFE
    Sampling rate : 48.0 kHz
    Frame rate : 187.500 FPS (256 SPF)
    Compression mode : Lossy
    Delay relative to video : 9 ms
    Stream size : 331 MiB (7%)
    Title : DD 5.1
    Language : English
    Service kind : Complete Main
    Default : Yes
    Forced : No
    Statistics Tags Issue : mkvmerge v7.6.0 ( Garden of Dreams ) 64bit built on Feb 8 2015 13:04:34 2017-08-21 01:07:00 / mkvmerge v6.2.0 ( Promised Land ) built on Apr 28 2013 12:22:01 2017-08-21 06:25:13
    FromStats_BitRate : 640000
    FromStats_Duration : 01:12:22.144000000
    FromStats_FrameCount : 135692
    FromStats_StreamSize : 347371520

    Text #1
    ID : 3
    Format : VobSub
    Codec ID : S_VOBSUB
    Codec ID/Info : Picture based subtitle format used on DVDs
    Title : Thai 480p
    Language : Thai
    Default : Yes
    Forced : No

    Text #2
    ID : 4
    Format : VobSub
    Codec ID : S_VOBSUB
    Codec ID/Info : Picture based subtitle format used on DVDs
    Title : Thai 720p
    Language : Thai
    Default : No
    Forced : No

    Text #3
    ID : 5
    Format : VobSub
    Codec ID : S_VOBSUB
    Codec ID/Info : Picture based subtitle format used on DVDs
    Title : Thai 1080p From HBO
    Language : Thai
    Default : No
    Forced : No

    Text #4
    ID : 6
    Format : VobSub
    Codec ID : S_VOBSUB
    Codec ID/Info : Picture based subtitle format used on DVDs
    Title : Thai 1080p (OUT) From HBO
    Language : Thai
    Default : No
    Forced : No

    Text #5
    ID : 7
    Format : PGS
    Codec ID : S_HDMV/PGS
    Codec ID/Info : Picture based subtitle format used on BDs/HD-DVDs
    Title : Thai PGS From HBO
    Language : Thai
    Default : No
    Forced : No

    Text #6
    ID : 8
    Format : UTF-8
    Codec ID : S_TEXT/UTF8
    Codec ID/Info : UTF-8 Plain Text
    Language : English
    Default : No
    Forced : No
    Statistics Tags Issue : mkvmerge v7.6.0 ( Garden of Dreams ) 64bit built on Feb 8 2015 13:04:34 2017-08-21 01:07:00 / mkvmerge v6.2.0 ( Promised Land ) built on Apr 28 2013 12:22:01 2017-08-21 06:25:13
    FromStats_BitRate : 45
    FromStats_Duration : 01:12:14.625000000
    FromStats_FrameCount : 803
    FromStats_StreamSize : 24777

    Code:
    Menu
    00:00:00.000                             : en:(Unnamed scene)
    00:00:08.497                             : en:(Unnamed scene)
    00:01:35.497                             : en:(Unnamed scene)
    00:01:41.497                             : en:(Unnamed scene)
    00:03:29.497                             : en:(Unnamed scene)
    00:09:08.497                             : en:(Unnamed scene)
    00:14:43.497                             : en:(Unnamed scene)
    00:19:02.497                             : en:(Unnamed scene)
    00:24:07.497                             : en:(Unnamed scene)
    00:28:29.497                             : en:(Unnamed scene)
    00:30:26.497                             : en:(Unnamed scene)
    00:37:04.497                             : en:(Unnamed scene)
    00:42:17.497                             : en:(Unnamed scene)
    00:44:30.497                             : en:(Unnamed scene)
    00:45:35.497                             : en:(Unnamed scene)
    00:58:48.497                             : en:(Unnamed scene)
    01:01:16.497                             : en:(Unnamed scene)
    01:05:12.497                             : en:(Unnamed scene)
    01:08:48.497                             : en:(Unnamed scene)
    01:10:17.497                             : en:(Unnamed scene)
    01:11:35.497                             : en:(Unnamed scene)















    Download: filecondo
    http://www.filecondo.com/dl.php?f=Ffe0871DJLzm
    Download: cornfile
    http://cornfile.com/ntcoofmny2cz
    Download: mekafile
    http://www.mekafile.com/dl.php?f=GR0915buamGp

    [ฝรั่ง]-[*ตอนใหม่ร้อน ๆ*] Game of Thrones (2017) Season 7 Episode 6 [1080p WEB-DL] [เสียงอังกฤษ DDP5.1] [บรรยายไทย + อังกฤษ] [ซับไทยแปลคุณภาพจากท่านสุนัขป่าโลกันตร์] [ซับ PGS, IDX, SRT คมกริบ]

  2. The Following 3 Users Say Thank You to Duckload.us For This Useful Post:

    beer181235 (08-21-2017), gaszolineskywalker (08-27-2017), Wesker_TOT (08-22-2017)

  3. #2
    Senior Member
    Join Date
    Dec 2013
    Posts
    818
    Thanks
    2,716
    Thanked 0 Times in 0 Posts
    ขอบคุณครับ...

+ Reply to Thread

Thread Information

Users Browsing this Thread

There are currently 1 users browsing this thread. (0 members and 1 guests)

     

Posting Permissions

  • You may not post new threads
  • You may not post replies
  • You may not post attachments
  • You may not edit your posts