+ Reply to Thread
Results 1 to 2 of 2
  1. #1
    Administrators Duckload.us's Avatar
    Join Date
    Dec 2010
    Posts
    95,718
    Thanks
    9
    Thanked 97,664 Times in 46,980 Posts

    Question [ฝรั่ง]-[Mini-HD]-Romeo + Juliet (1996) โรมิโอ + จูเลียต [Master] [1080p HQ.] [เสียงไทยมาสเตอร์ 5.1 + ENG [email protected] ] [บรรยายไทย + อังกฤษ] [เสียง + ซับ From BluRay MASTER : + ซับไทย PGS คมชัดถึงใจ] [.MKV]

    ...Romeo and Juliet โรมิโอ แอนด์ จูเลียตผลงานดัดแปลงจากวรรณกรรมรักสุดคลาสสิคของวิลเ ลี่ยม เชคส์เปียร์ โดยฝีมือของผู้กำกับ บาซ เลอห์มานน์
    เรื่องนี้ คือ ความวิจิตรสะกดหัวใจ ลีโอนาร์โด ดิคาปริโอ และ แคลร์ เดนส์ มารับบทโรมิโอกับจูเลียต คู่รักจากสองตระกูลคู่อาฆาต
    ที่เปลี่ยนฉากจากอังกฤษยุคโบราณ สู่บรรยากาศสุดฉูดฉาดของเวโรน่า บีช ยุคปัจจุบัน นี่คือ งานที่นำมาเล่าใหม่ได้อย่างหรูเลิศร่วมสมัย
    ของโศกนาฏกรรมรักตรึงใจ ที่ทำให้โรมิโอกับจูเลียต อยู่ยงคงอมตะในใจผู้คนไปตลอดกาล!!!
    Complete name : D:จีน1...Romeo + Juliet (1996) โรมิโอ + จูเลียต{MINI}Romeo + Juliet.1996.BrRip.1080p.x264.DTS_by [email protected]
    Format : Matroska
    Format version : Version 4 / Version 2
    File size : 3.16 GiB
    Duration : 2h 0mn
    Overall bit rate : 3 759 Kbps
    Movie name : Romeo + Juliet.1996.BrRip.1080p.x264.DTS_by [email protected]
    Encoded date : UTC 2010-02-22 21:41:31
    Writing application : mkvmerge v5.9.0 ( On The Loose ) built on Dec 9 2012 15:37:01
    Writing library : libebml v1.3.0 + libmatroska v1.4.0

    Video
    ID : 1
    Format : AVC
    Format/Info : Advanced Video Codec
    Format profile : [email protected]
    Format settings, CABAC : Yes
    Format settings, ReFrames : 4 frames
    Codec ID : V_MPEG4/ISO/AVC
    Duration : 2h 0mn
    Bit rate : 2 500 Kbps
    Width : 1 920 pixels
    Height : 800 pixels
    Display aspect ratio : 2.40:1
    Frame rate mode : Constant
    Frame rate : 23.976 fps
    Color space : YUV
    Chroma subsampling : 4:2:0
    Bit depth : 8 bits
    Scan type : Progressive
    Bits/(Pixel*Frame) : 0.068
    Stream size : 2.08 GiB (66%)
    Title : Romeo + Juliet.1996.BrRip.1080p.x264.DTS_by [email protected]
    Writing library : x264 core 120
    Encoding settings : cabac=1 / ref=3 / deblock=1:0:0 / analyse=0x3:0x113 / me=umh / subme=9 / psy=1 / psy_rd=1.00:0.00 / mixed_ref=1 / me_range=16 / chroma_me=1 / trellis=1 / 8x8dct=1 / cqm=0 / deadzone=21,11 / fast_pskip=1 / chroma_qp_offset=-2 / threads=12 / sliced_threads=0 / nr=0 / decimate=1 / interlaced=0 / bluray_compat=0 / constrained_intra=0 / bframes=3 / b_pyramid=2 / b_adapt=2 / b_bias=0 / direct=1 / weightb=1 / open_gop=0 / weightp=2 / keyint=240 / keyint_min=24 / scenecut=40 / intra_refresh=0 / rc_lookahead=50 / rc=2pass / mbtree=1 / bitrate=2500 / ratetol=1.0 / qcomp=0.60 / qpmin=3 / qpmax=69 / qpstep=4 / cplxblur=20.0 / qblur=0.5 / ip_ratio=1.40 / aq=1:1.00
    Language : English
    Default : Yes
    Forced : No
    Color primaries : BT.709
    Transfer characteristics : BT.709
    Matrix coefficients : BT.709
    Color range : Limited

    Audio #1
    ID : 2
    Format : DTS
    Format/Info : Digital Theater Systems
    Mode : 16
    Format settings, Endianness : Big
    Codec ID : A_DTS
    Duration : 2h 0mn
    Bit rate mode : Constant
    Bit rate : 755 Kbps
    Channel(s) : 6 channels
    Channel positions : Front: L C R, Side: L R, LFE
    Sampling rate : 48.0 KHz
    Bit depth : 24 bits
    Compression mode : Lossy
    Stream size : 649 MiB (20%)
    Title : English DTS
    Language : English
    Default : No
    Forced : No

    Audio #2
    ID : 3
    Format : AC-3
    Format/Info : Audio Coding 3
    Mode extension : CM (complete main)
    Format settings, Endianness : Big
    Codec ID : A_AC3
    Duration : 2h 0mn
    Bit rate mode : Constant
    Bit rate : 448 Kbps
    Channel(s) : 6 channels
    Channel positions : Front: L C R, Side: L R, LFE
    Sampling rate : 48.0 KHz
    Bit depth : 16 bits
    Compression mode : Lossy
    Stream size : 385 MiB (12%)
    Title : Thai BluRay Master
    Language : Thai
    Default : Yes
    Forced : Yes

    Text #1
    ID : 4
    Format : VobSub
    Codec ID : S_VOBSUB
    Codec ID/Info : The same subtitle format used on DVDs
    Title : Thai 480p From BluRay Master
    Language : Thai
    Default : No
    Forced : No

    Text #2
    ID : 5
    Format : VobSub
    Codec ID : S_VOBSUB
    Codec ID/Info : The same subtitle format used on DVDs
    Title : Thai 1080p BluRay Master
    Language : Thai
    Default : Yes
    Forced : Yes

    Text #3
    ID : 6
    Format : VobSub
    Codec ID : S_VOBSUB
    Codec ID/Info : The same subtitle format used on DVDs
    Title : Thai 1080p BluRay Master Big
    Language : Thai
    Default : No
    Forced : No

    Text #4
    ID : 7
    Format : VobSub
    Codec ID : S_VOBSUB
    Codec ID/Info : The same subtitle format used on DVDs
    Title : Thai 1080p BluRay Master Out
    Language : Thai
    Default : No
    Forced : No

    Text #5
    ID : 8
    Format : PGS
    Codec ID : S_HDMV/PGS
    Codec ID/Info : The same subtitle format used on BDs/HD-DVDs
    Title : Thai PGS BluRay Master
    Language : Thai
    Default : No
    Forced : No

    Text #6
    ID : 9
    Format : VobSub
    Codec ID : S_VOBSUB
    Codec ID/Info : The same subtitle format used on DVDs
    Title : English
    Language : English
    Default : No
    Forced : No



    Download: cornfile
    http://cornfile.com/vvvff8bcwvow
    Download: mekafile
    http://www.mekafile.com/dl.php?f=HJ09aebufEZa

  2. #2
    Senior Member
    Join Date
    Sep 2013
    Posts
    1,106
    Thanks
    0
    Thanked 1 Time in 1 Post
    ต้องตามเก็บสะสมละแบบนี้

+ Reply to Thread

Thread Information

Users Browsing this Thread

There are currently 1 users browsing this thread. (0 members and 1 guests)

     

Posting Permissions

  • You may not post new threads
  • You may not post replies
  • You may not post attachments
  • You may not edit your posts