+ Reply to Thread
Results 1 to 7 of 7
  1. #1
    Senior Member
    Join Date
    May 2015
    Posts
    1,846
    Thanks
    0
    Thanked 832 Times in 583 Posts

    Arrow [Mini-HD] I Am Not Madame Bovary (2016) : อย่าคิดหลอกเจ๊ !!! [เสียง:ไทย 5.1]








    I.Am.Not.Madame.Bovary.Wo.bu.shi.Pan.Jin.Lian.2016 .1080p.mkv
    Format : Matroska
    Format version : Version 4 / Version 2
    File size : 6.34 GiB
    Duration : 2 h 18 min
    Overall bit rate : 6 530 kb/s
    Encoded date : UTC 2017-09-08 11:04:13
    Writing application : mkvmerge v12.0.0 ('Trust / Lust') 64bit
    Writing library : libebml v1.3.4 + libmatroska v1.4.5

    Video
    ID : 1
    Format : AVC
    Format/Info : Advanced Video Codec
    Format profile : [email protected]
    Format settings, CABAC : Yes
    Format settings, ReFrames : 4 frames
    Codec ID : V_MPEG4/ISO/AVC
    Duration : 2 h 18 min
    Bit rate : 6 000 kb/s
    Width : 1 920 pixels
    Height : 1 080 pixels
    Display aspect ratio : 16:9
    Frame rate mode : Constant
    Frame rate : 24.000 FPS
    Color space : YUV
    Chroma subsampling : 4:2:0
    Bit depth : 8 bits
    Scan type : Progressive
    Bits/(Pixel*Frame) : 0.121
    Stream size : 5.69 GiB (90%)
    Writing library : x264()-core 129 - H.264/MPEG-4
    Encoding settings : cabac=1 / ref=4 / deblock=1:0:0 / analyse=0x3:0x133 / me=umh / subme=9 / psy=1 / psy_rd=0.00:0.00 / mixed_ref=1 / me_range=24 / chroma_me=1 / trellis=2 / 8x8dct=1 / cqm=0 / deadzone=21,11 / fast_pskip=0 / chroma_qp_offset=0 / threads=40 / lookahead_threads=6 / sliced_threads=0 / nr=0 / decimate=1 / interlaced=0 / bluray_compat=0 / constrained_intra=0 / bframes=4 / b_pyramid=2 / b_adapt=0 / b_bias=0 / direct=3 / weightb=1 / open_gop=0 / weightp=2 / keyint=240 / keyint_min=24 / scenecut=40 / intra_refresh=0 / rc_lookahead=60 / rc=abr / mbtree=1 / bitrate=6000 / ratetol=1.0 / qcomp=0.60 / qpmin=0 / qpmax=69 / qpstep=4 / vbv_maxrate=12000 / vbv_bufsize=6000 / nal_hrd=none / ip_ratio=1.40 / aq=1:1.00
    Default : Yes
    Forced : No

    Audio #1
    ID : 2
    Format : AAC
    Format/Info : Advanced Audio Codec
    Format profile : LC
    Codec ID : A_AAC
    Duration : 2 h 18 min
    Bit rate : 445 kb/s
    Channel(s) : 6 channels
    Channel positions : Front: L C R, Side: L R, LFE
    Sampling rate : 48.0 kHz
    Frame rate : 46.875 FPS (1024 spf)
    Compression mode : Lossy
    Delay relative to video : -202 ms
    Stream size : 442 MiB (7%)
    Title : Thai - AAC 7729ms faster
    Language : Thai
    Default : Yes
    Forced : No

    Audio #2
    ID : 3
    Format : AAC
    Format/Info : Advanced Audio Codec
    Format profile : LC
    Codec ID : A_AAC
    Duration : 2 h 18 min
    Bit rate : 224 kb/s
    Channel(s) : 2 channels
    Channel positions : Front: L R
    Sampling rate : 44.1 kHz
    Frame rate : 43.066 FPS (1024 spf)
    Compression mode : Lossy
    Delay relative to video : -217 ms
    Stream size : 223 MiB (3%)
    Title : Chinese - AAC
    Language : Chinese
    Default : No
    Forced : No






    ทั้งเรื่องมันเล่าถึงนางเอก หลีสั่วเหลียน (ฟ่านปิงปิง) และสามีที่ได้ทำการ ‘หย่า’ แบบปลอมๆ ด้วยความหวังผลว่าจะได้อพาร์ตเมนต์หลังที่ 2 ที่รัฐบาลจัดเตรียมไว้ให้สำหรับคนโสด แต่การณ์กลับไม่เป็นไปดังที่คาด เมื่อสามีของเธอกลับหันไปแต่งงานใหม่ ยังความหัวเสียให้แก่หลีสั่วเหลียนเป็นอันมาก เธอตัดสินใจฟ้องศาล แต่เธอกลับพ่ายแพ้หมดรูป ผู้พิพากษามองว่าทั้งคู่หย่าขาดจากกันอย่างเป็นทางกา รไปเรียบร้อยแล้ว
    หลีสั่วเหลียนไม่พอใจต่อการตัดสินของศาล พยายามร้องเรียนเท่าไหร่ก็ไม่เป็นผล ยื่นเรื่องขออุทธรณ์คดีกี่ครั้งก็ไม่เคยประสบความสำเ ร็จ ดั้นด้นไปหาสามีเก่า ก็กลับถูกกล่าวหาว่าเป็นคนสำส่อน จนผู้คนโจษจันกันไปทั่วปฐพีความโกรธแค้นที่มากล้นส่ง ผลให้เธอก่อการเอาคืนครั้งใหญ่เพื่อทวงเกียรติยศของต นกลับคืนมา






    I.Am.Not.Madame.Bovary.Wo.bu.shi.Pan.Jin.Lian.2016 .1080p.mkv - 6805735541

    >>สมัคร VIP cornfile <<

    >> วิธีสมัคร VIP cornfile <<




    1 PART

    DOWNLOAD

    วิธีแก้ปัญหา Google ไดรฟ์ - เกินโควต้า




    1 PART

    DOWNLOAD


    ติดตามอัพเดตเรื่องอื่นๆได้ที่

    https://enthdmovieclub.blogspot.com/
    Last edited by ENT-HD; 10-23-2017 at 05:08 PM.

  2. The Following 2 Users Say Thank You to ENT-HD For This Useful Post:

    beer181235 (09-11-2017), Tatum03 (09-10-2017)

  3. #2
    Senior Member
    Join Date
    Oct 2013
    Location
    Thailand
    Posts
    888
    Thanks
    763
    Thanked 0 Times in 0 Posts
    ขอบคุณมาก

  4. #3
    Senior Member beer181235's Avatar
    Join Date
    Aug 2012
    Posts
    234
    Thanks
    3,052
    Thanked 0 Times in 0 Posts
    มันขึ้นแบบนี้ทุกพาทครับ HTTP/1.0 500 Internal Server Error บินอีกแล้วใช่ไหมครับ
    Beer > > I Like Movie Max'z. LoveYou > > DuckLoad

  5. #4
    Senior Member
    Join Date
    May 2015
    Posts
    1,846
    Thanks
    0
    Thanked 832 Times in 583 Posts
    ลองเช็คดูแล้ว โหลดได้ปกติแล้วครับ

  6. #5
    Senior Member beer181235's Avatar
    Join Date
    Aug 2012
    Posts
    234
    Thanks
    3,052
    Thanked 0 Times in 0 Posts
    Quote Originally Posted by ENT-HD View Post
    ลองเช็คดูแล้ว โหลดได้ปกติแล้วครับ
    ได้แล้วขอรับ ขอบคุณครับ
    Beer > > I Like Movie Max'z. LoveYou > > DuckLoad

  7. #6
    Senior Member
    Join Date
    May 2015
    Posts
    1,846
    Thanks
    0
    Thanked 832 Times in 583 Posts
    เพิ่ม google drive 1 part

  8. #7
    Senior Member
    Join Date
    Sep 2014
    Posts
    2,714
    Thanks
    2
    Thanked 0 Times in 0 Posts
    รบกวนรีอัพให้อีกทีครับ

+ Reply to Thread

Thread Information

Users Browsing this Thread

There are currently 1 users browsing this thread. (0 members and 1 guests)

     

Posting Permissions

  • You may not post new threads
  • You may not post replies
  • You may not post attachments
  • You may not edit your posts