+ Reply to Thread
Results 1 to 5 of 5
  1. #1
    Administrators Duckload.us's Avatar
    Join Date
    Dec 2010
    Posts
    96,809
    Thanks
    9
    Thanked 98,303 Times in 47,299 Posts

    Question [จีน]-(พากษ์ไทยฮาโดยพันธมิตร) King of Beggars (1992) ยาจกซูไม้เท้าประกาศิต-Blu-ray.AC-3.1080p. [Modified]-[พากย์ไทย บรรยายไทย]



    King of Beggars (1992) ยาจกซูไม้เท้าประกาศิต

    เรื่องย่อ
    ยาจกซูเดิมทีเป็นลูกเศรษฐี แต่เพราะความไม่เอาไหนของตนเองทำให้ต้องกลายมาเป็นขอ ทาน อาซูถือว่าตนเป็นคนรวยจึงใช้ชีวิตอย่างสำราญไปวันๆ แม้จะเก่งในทักษะการต่อสู้แต่ก็อ่านหนังสือไม่ออก อาซูไปหลงรักผู้หญิงคนหนึ่งถึงขั้นขอนางแต่งงาน แต่นางมีเงื่อนไขว่าเขาต้องเป็นผู้ชนะในการสอบแข่งขั นชิงตำแหน่งจอหงวนบู๊ ซึ่งอาซูก็ทำสำเร็จแต่โดนจับได้ว่าโกงการสอบข้อเขียน ทำให้ฮ่องเต้ทรงกริ้วมากจึงมีรับสั่งให้ยึดทรัพย์สิน ทั้งหมด ตระกูลของอาซูจึงต้องกลายมาเป็นยาจก อาซูได้เป็นสมาชิกพรรคกระยาจกจึงเริ่มต้นเรียนหนังสื อ ทำให้ต่อมาได้ขึ้นเป็นหัวหน้าพรรคกระยาจกอีกทั้งยังไ ด้ช่วยเหลือฮ่องเต้ให้พ้นเงื้อมมือกบฎจนได้รับความดี ความชอบ ฮ่องเต้พระราชทานเกียรติยศและเงินทองคืนแก่อาซู แต่เขากลับเลือกที่จะเป็นยาจกซูเหมือนเดิม..

    Format : Matroska
    Format version : Version 4 / Version 2
    File size : 8.52 GiB
    Duration : 1 h 40 min
    Overall bit rate : 12.2 Mb/s
    Movie name : King.of.Beggars.1992.1080p.x264.AC3.2AUDIO-WAF by max
    Encoded date : UTC 2016-09-25 06:11:53
    Writing application : mkvmerge v7.7.0 ( Six Voices ) 32bit built on Feb 28 2015 23:23:00
    Writing library : libebml v1.3.1 + libmatroska v1.4.2

    Video
    ID : 1
    Format : AVC
    Format/Info : Advanced Video Codec
    Format profile : [email protected]
    Format settings, CABAC : Yes
    Format settings, ReFrames : 4 frames
    Codec ID : V_MPEG4/ISO/AVC
    Duration : 1 h 40 min
    Bit rate : 10.5 Mb/s
    Width : 1 920 pixels
    Height : 1 020 pixels
    Display aspect ratio : 1.882
    Frame rate mode : Constant
    Frame rate : 23.976 (24000/1001) FPS
    Color space : YUV
    Chroma subsampling : 4:2:0
    Bit depth : 8 bits
    Scan type : Progressive
    Bits/(Pixel*Frame) : 0.223
    Stream size : 7.31 GiB (86%)
    Title : King.of.Beggars.1992.1080p.x264.AC3.2AUDIO-WAF by max
    Writing library : x264 core 114 r1924 08d04a4
    Encoding settings : cabac=1 / ref=3 / deblock=1:0:0 / analyse=0x3:0x133 / me=umh / subme=7 / psy=1 / psy_rd=1.00:0.00 / mixed_ref=1 / me_range=16 / chroma_me=1 / trellis=1 / 8x8dct=1 / cqm=0 / deadzone=21,11 / fast_pskip=1 / chroma_qp_offset=-2 / threads=6 / sliced_threads=0 / nr=0 / decimate=1 / interlaced=0 / constrained_intra=0 / bframes=3 / b_pyramid=2 / b_adapt=1 / b_bias=0 / direct=1 / weightb=1 / open_gop=0 / weightp=2 / keyint=250 / keyint_min=23 / scenecut=40 / intra_refresh=0 / rc_lookahead=40 / rc=2pass / mbtree=1 / bitrate=10462 / ratetol=1.0 / qcomp=0.60 / qpmin=0 / qpmax=69 / qpstep=4 / cplxblur=20.0 / qblur=0.5 / ip_ratio=1.40 / aq=1:1.00
    Language : English
    Default : Yes
    Forced : No

    Audio #1
    ID : 2
    Format : AC-3
    Format/Info : Audio Coding 3
    Mode extension : CM (complete main)
    Format settings, Endianness : Big
    Codec ID : A_AC3
    Duration : 1 h 39 min
    Bit rate mode : Constant
    Bit rate : 640 kb/s
    Channel(s) : 6 channels
    Channel positions : Front: L C R, Side: L R, LFE
    Sampling rate : 48.0 kHz
    Frame rate : 31.250 FPS (1536 spf)
    Bit depth : 16 bits
    Compression mode : Lossy
    Stream size : 457 MiB (5%)
    Title : Mandarin
    Language : Chinese
    Default : No
    Forced : No

    Audio #2
    ID : 3
    Format : AC-3
    Format/Info : Audio Coding 3
    Mode extension : CM (complete main)
    Format settings, Endianness : Big
    Codec ID : A_AC3
    Duration : 1 h 39 min
    Bit rate mode : Constant
    Bit rate : 640 kb/s
    Channel(s) : 6 channels
    Channel positions : Front: L C R, Side: L R, LFE
    Sampling rate : 48.0 kHz
    Frame rate : 31.250 FPS (1536 spf)
    Bit depth : 16 bits
    Compression mode : Lossy
    Stream size : 457 MiB (5%)
    Title : Cantonese
    Language : Chinese
    Default : No
    Forced : No

    Audio #3
    ID : 4
    Format : AC-3
    Format/Info : Audio Coding 3
    Mode extension : CM (complete main)
    Format settings, Endianness : Big
    Codec ID : A_AC3
    Duration : 1 h 39 min
    Bit rate mode : Constant
    Bit rate : 384 kb/s
    Channel(s) : 6 channels
    Channel positions : Front: L C R, Side: L R, LFE
    Sampling rate : 48.0 kHz
    Frame rate : 31.250 FPS (1536 spf)
    Bit depth : 16 bits
    Compression mode : Lossy
    Delay relative to video : 3 s 0 ms
    Stream size : 274 MiB (3%)
    Title : Thai 5.1
    Language : Thai
    Default : Yes
    Forced : No

    Text #1
    ID : 5
    Format : PGS
    Muxing mode : zlib
    Codec ID : S_HDMV/PGS
    Codec ID/Info : Picture based subtitle format used on BDs/HD-DVDs
    Duration : 1 h 36 min
    Bit rate : 19.6 kb/s
    Count of elements : 2216
    Stream size : 13.6 MiB (0%)
    Default : Yes
    Forced : No

    Text #2
    ID : 6
    Format : VobSub
    Codec ID : S_VOBSUB
    Codec ID/Info : Picture based subtitle format used on DVDs
    Duration : 1 h 36 min
    Bit rate : 12.5 kb/s
    Count of elements : 1106
    Stream size : 8.65 MiB (0%)
    Language : Thai
    Default : No
    Forced : No

    Text #3
    ID : 7
    Format : PGS
    Muxing mode : zlib
    Codec ID : S_HDMV/PGS
    Codec ID/Info : Picture based subtitle format used on BDs/HD-DVDs
    Duration : 1 h 36 min
    Bit rate : 21.8 kb/s
    Count of elements : 2216
    Stream size : 15.1 MiB (0%)
    Language : Thai
    Default : No
    Forced : No

    Text #4
    ID : 8
    Format : VobSub
    Codec ID : S_VOBSUB
    Codec ID/Info : Picture based subtitle format used on DVDs
    Duration : 1 h 36 min
    Bit rate : 11.3 kb/s
    Count of elements : 1106
    Stream size : 7.82 MiB (0%)
    Language : Thai
    Default : No
    Forced : No




    Download: cornfile
    http://cornfile.com/6xaxv8jmozhw
    Download: mekafile
    http://www.mekafile.com/dl.php?f=yE2511bve7Qb

  2. The Following User Says Thank You to Duckload.us For This Useful Post:

    PUNKROCK (10-04-2017)

  3. #2
    Senior Member
    Join Date
    Jul 2012
    Posts
    5,757
    Thanks
    0
    Thanked 0 Times in 0 Posts
    ขอบคุณมากจ้า

  4. #3
    Senior Member PUNKROCK's Avatar
    Join Date
    Jul 2011
    Posts
    1,213
    Thanks
    1,090
    Thanked 0 Times in 0 Posts
    ขอบพระคุณครับ โชคดีแล้วก็มีความสุข นะพี่
    PUNKROCK NEVERDIE

  5. #4
    Senior Member
    Join Date
    Jan 2012
    Posts
    335
    Thanks
    8
    Thanked 0 Times in 0 Posts
    สุดยอดครับตามมาเก็บ

  6. #5
    Senior Member
    Join Date
    Sep 2013
    Posts
    1,129
    Thanks
    0
    Thanked 1 Time in 1 Post
    สุดยอดครับ

+ Reply to Thread

Thread Information

Users Browsing this Thread

There are currently 1 users browsing this thread. (0 members and 1 guests)

     

Posting Permissions

  • You may not post new threads
  • You may not post replies
  • You may not post attachments
  • You may not edit your posts