The.Bodyguard.from.Beijing.1994.HK.720p.mkv
Format : Matroska
Format version : Version 2
File size : 5.56 GiB
Duration : 1 h 29 min
Overall bit rate : 8 937 kb/s
Movie name : The.Bodyguard.from.Beijing.1994.HK.720p.DD.2.0.HD. X264-joythun
Encoded date : UTC 2017-09-06 08:14:18
Writing application : mkvmerge v5.8.0 ('No Sleep / Pillow') built on Sep 2 2012 15:37:04
Writing library : libebml v1.2.3 + libmatroska v1.3.0

Video
ID : 1
Format : AVC
Format/Info : Advanced Video Codec
Format profile : [email protected]
Format settings, CABAC : Yes
Format settings, ReFrames : 8 frames
Codec ID : V_MPEG4/ISO/AVC
Duration : 1 h 29 min
Bit rate : 8 000 kb/s
Width : 1 280 pixels
Height : 720 pixels
Display aspect ratio : 16:9
Frame rate mode : Constant
Frame rate : 25.000 FPS
Color space : YUV
Chroma subsampling : 4:2:0
Bit depth : 8 bits
Scan type : Progressive
Bits/(Pixel*Frame) : 0.347
Stream size : 4.75 GiB (85%)
Title : The.Bodyguard.from.Beijing.1994.HK.720p.DD.2.0.HD. X264-joythun
Writing library : x264 core 98 r1649 c54c47d
Encoding settings : cabac=1 / ref=8 / deblock=1:-2:-2 / analyse=0x3:0x113 / me=umh / subme=7 / psy=1 / psy_rd=1.00:0.15 / mixed_ref=1 / me_range=24 / chroma_me=1 / trellis=2 / 8x8dct=1 / cqm=0 / deadzone=21,11 / fast_pskip=0 / chroma_qp_offset=-3 / threads=3 / sliced_threads=0 / nr=0 / decimate=1 / interlaced=0 / constrained_intra=0 / bframes=6 / b_pyramid=2 / b_adapt=2 / b_bias=0 / direct=3 / weightb=1 / weightp=2 / keyint=250 / keyint_min=25 / scenecut=40 / intra_refresh=0 / rc_lookahead=40 / rc=2pass / mbtree=1 / bitrate=8000 / ratetol=1.0 / qcomp=0.60 / qpmin=10 / qpmax=51 / qpstep=4 / cplxblur=20.0 / qblur=0.5 / vbv_maxrate=8000 / vbv_bufsize=5000 / ip_ratio=1.40 / aq=1:1.00 / nal_hrd=none
Language : Chinese
Default : Yes
Forced : Yes

Audio #1
ID : 2
Format : AC-3
Format/Info : Audio Coding 3
Format settings, Endianness : Big
Codec ID : A_AC3
Duration : 1 h 29 min
Bit rate mode : Constant
Bit rate : 224 kb/s
Channel(s) : 2 channels
Channel positions : Front: L R
Sampling rate : 48.0 kHz
Frame rate : 31.250 FPS (1536 spf)
Bit depth : 16 bits
Compression mode : Lossy
Stream size : 143 MiB (3%)
Title : THAI 2.0 @ 224 Kbps
Language : Thai
Service kind : Complete Main
Default : Yes
Forced : Yes

Audio #2
ID : 3
Format : AC-3
Format/Info : Audio Coding 3
Format settings, Endianness : Big
Codec ID : A_AC3
Duration : 1 h 29 min
Bit rate mode : Constant
Bit rate : 448 kb/s
Channel(s) : 2 channels
Channel positions : Front: L R
Sampling rate : 48.0 kHz
Frame rate : 31.250 FPS (1536 spf)
Bit depth : 16 bits
Compression mode : Lossy
Stream size : 286 MiB (5%)
Title : Cantonese 5.1 @ 448 Kbps
Language : Chinese
Service kind : Complete Main
Default : No
Forced : Yes

Audio #3
ID : 4
Format : AC-3
Format/Info : Audio Coding 3
Format settings, Endianness : Big
Codec ID : A_AC3
Duration : 1 h 29 min
Bit rate mode : Constant
Bit rate : 448 kb/s
Channel(s) : 2 channels
Channel positions : Front: L R
Sampling rate : 48.0 kHz
Frame rate : 31.250 FPS (1536 spf)
Bit depth : 16 bits
Compression mode : Lossy
Stream size : 286 MiB (5%)
Title : Mandarin 5.1 @ 448 Kbps
Language : Chinese
Service kind : Complete Main
Default : No
Forced : No

MODIFIED BY JOYTHUN











เจิ้นหยาง บอดี้การ์ดต้องไปองครักษ์เชี่ยนเอ๋อแฟนสาวของซ่งนักธ ุรกิจชื่อดัง ซึ่งเป็นพยานของคดีฆาตกรรม ด้วยเหตุการณ์เธอก็ยอมรับในความสามารถและหลงรักจิ้น ส่วนเจิ้นหยาง ความใกล้ชิดทำให้แอบมีใจกับเชี่ยนเอ๋อ แต่คำว่าบอดี้การ์ดทำให้เขาเลือกที่จะทำหน้าที่ให้สม บูรณ์




The.Bodyguard.from.Beijing.1994.720p.mkv

>>สมัคร VIP cornfile <<

>> วิธีสมัคร VIP cornfile <<




V.1

PART1

PART2

PART3

PART4

PART5

V.2

PART1

PART2

PART3

PART4

PART5

PASS: enthdmovieclub


### #### V.1,V.2 ทุกพาท โหลดแทนกันได้ เปลี่ยนชื่อให้ตรงกันตอนรวมไฟล์###

ติดตามอัพเดตเรื่องอื่นๆได้ที่

https://enthdmovieclub.blogspot.com/