+ Reply to Thread
Results 1 to 2 of 2
  1. #1
    Administrators Duckload.us's Avatar
    Join Date
    Dec 2010
    Posts
    94,270
    Thanks
    9
    Thanked 96,684 Times in 46,513 Posts

    Lightbulb [จีน]-TVB HD [ซีรี่ย์เก่าโมใหม่แบบ 720P ชัดแจ่ม ][**คมชัดทั้งภาพและเสียง**] Sweetness in the salt 2009 ยอดหญิงกู้ตระกูล [พากย์ไทยทรู]-HDTV.H.264.720p. [From TV]-[พากย์ไทย]




    ชื่อจีน :碧 血 鹽 梟
    ชื่ออังกฤษ :Sweetness in the Salt
    ชื่อไทย : ยอดหญิงกู้ตระกูล
    ประเภท :ย้อนยุค ของยอดหญิง
    จำนวนตอน :25
    ออกอากาศที่ฮ่องกง : release June 8 – July 10, 2009
    เรทติ้ง : เฉลี่ย28 สูงสุด 28

    นำแสดงโดย:

    หม่าจุ้นเหว่ย หยังอี้ กัวฟง หวงเฮ่าเหยิน อ้าวเจียนเหนียน Felix Lok


    นักแสดงในเรื่อง

    หม่าจุ้นเหว่ย

    หยังอี้

    กัวฟง

    หวงเฮ่าเหยิน

    อ้าวเจียนเหนียน

    Felix Lok




    ฉี หยุน (มา ชิ วัย) ซึ่งทำงานในค่ายต่อต้านการลักลอบของหนีภาษี มุ่งมั่นที่จะกวาดล้างป้อมของตระกูลโต ซึ่งเป็นที่มั่นของพวกลักลอบขนเกลือ เขาแสร้งปลอมตัวเป็นบัณฑิตตกยาก โต ซิง ซุด (หยังอี้) ลูกสาวหัวหน้าลักลอบขนของเกิดความสงสารหยุน จึงพามาอาศัยในหมู่บ้าน ต่อมา ทั้งสองก็เกิดชอบพอกัน ในระหว่างปฏิบัติการต่อต้านการลักลอบขนของ ซุดบาดเจ็บอย่างหนัก และต้องพลัดพรากจากหยุน และครอบครัวของเธอ โชคดี ที่หวู ติง ฮิน (เรย์มอน หว่อง โฮ ยิน) ลูกชายพ่อค้าเกลือ หวู คิน (กว็อก ฟัง) ได้ช่วยชีวิตเธอไว้ ฮินพาเธอไปที่บ้าน วันหนึ่ง ซุดต้องตกใจเป็นอย่างมากที่ได้เห็นศพของพ่อแม่แขวนไว ้บนกำแพงเมือง และเจ้าหน้าที่ที่ยืนอยู่บนกำแพง และกำลังประกาศให้ชาวเมืองล้มเลิกการลักลอบขนเกลือมิ ใช่ใครอื่นไกล เพราะเขาคือชายที่เธอเฝ้าคิดถึงทั้งวันทั้งคืน ซุดต้องใจสลาย ความรักที่เธอมีต่อหยุนได้แปรเปลี่ยนเป็นความเกลียดช ังนับแต่นั้นเป็นต้นมา

    ฮินหางานให้ซุดทำในโรงเกลือที่ครอบครัวเขาเป็นเจ้าขอ งเพื่อช่วยให้เธอคลายจากความเศร้าโศก เพื่อทดแทนบุญคุณ เธออุทิศตนทำงานด้วยความมุ่งมั่น เมื่อเวลาผ่านไป ฮินก็ตกหลุมรักเธอ แต่ด้วยโรคร้ายแรงที่เขาเป็นอยู่ทำให้เขาลังเลที่จะบ อกความในใจ ต่อมา ตัวตนที่แท้จริงของซุดต้องถูกเปิดเผยออกมาเมื่ออาของ เธอปรากฏตัวอย่างปัจจุบันทันด่วน ด้วยความกลัวว่าครอบครัวจะแจ้งทางการ ฮินเลยขอซุดแต่งงาน




    Bits/(Pixel*Frame) : 0.130
    Stream size : 909 MiB (82%)
    Writing library : x264 core 67 r1169M ab85c9b
    Encoding settings : cabac=1 / ref=1 / deblock=1:0:0 / analyse=0x1:0x131 / me=hex / subme=5 / psy_rd=0.0:0.0 / mixed_ref=0 / me_range=16 / chroma_me=1 / trellis=0 / 8x8dct=0 / cqm=0 / deadzone=21,11 / chroma_qp_offset=0 / threads=6 / nr=0 / decimate=1 / mbaff=0 / bframes=3 / b_pyramid=0 / b_adapt=1 / b_bias=0 / direct=1 / wpredb=1 / keyint=250 / keyint_min=25 / scenecut=40 / rc=abr / bitrate=3000 / ratetol=1.0 / qcomp=0.60 / qpmin=10 / qpmax=51 / qpstep=4 / ip_ratio=1.40 / pb_ratio=1.30 / aq=1:1.00
    Default : Yes
    Forced : No

    Audio #1
    ID : 2
    Format : AC-3
    Format/Info : Audio Coding 3
    Format settings, Endianness : Big
    Muxing mode : Header stripping
    Codec ID : A_AC3
    Duration : 43 min 43 s
    Bit rate mode : Constant
    Bit rate : 192 kb/s
    Channel(s) : 2 channels
    Channel positions : Front: L R
    Sampling rate : 48.0 kHz
    Frame rate : 31.250 FPS (1536 SPF)
    Bit depth : 16 bits
    Compression mode : Lossy
    Stream size : 60.1 MiB (5%)
    Language : Thai
    Service kind : Complete Main
    Default : Yes
    Forced : No

    Audio #2
    ID : 3
    Format : AC-3
    Format/Info : Audio Coding 3
    Format settings, Endianness : Big
    Muxing mode : Header stripping
    Codec ID : A_AC3
    Duration : 43 min 43 s
    Bit rate mode : Constant
    Bit rate : 384 kb/s
    Channel(s) : 6 channels
    Channel positions : Front: L C R, Side: L R, LFE
    Sampling rate : 48.0 kHz
    Frame rate : 31.250 FPS (1536 SPF)
    Bit depth : 16 bits
    Compression mode : Lossy
    Stream size : 120 MiB (11%)
    Language : Chinese
    Service kind : Complete Main
    Default : No
    Forced : No















    1
    http://www.filecondo.com/dl.php?f=97919a1DZfXb
    2
    http://www.filecondo.com/dl.php?f=Oe4f6b1DZfY6
    3
    http://www.filecondo.com/dl.php?f=S71a261DZfZ3
    4
    http://www.filecondo.com/dl.php?f=f6f2eb1DZg01
    5
    http://www.filecondo.com/dl.php?f=Y853e31DZg11
    6
    http://www.filecondo.com/dl.php?f=Z74ef21DZg23
    7
    http://www.filecondo.com/dl.php?f=Y3458c1DZg2Y
    8
    http://www.filecondo.com/dl.php?f=se32971DZg3T
    9
    http://www.filecondo.com/dl.php?f=i9d3531DZg4S
    10
    http://www.filecondo.com/dl.php?f=p167c31DZg5P
    11
    http://www.filecondo.com/dl.php?f=q90e821DZg6N
    12
    http://www.filecondo.com/dl.php?f=Mfe3aa1DZg7L
    13
    http://www.filecondo.com/dl.php?f=bacbef1DZg8J
    14
    http://www.filecondo.com/dl.php?f=W722031DZg9H
    15
    http://www.filecondo.com/dl.php?f=p92bc81DZgaF
    16
    http://www.filecondo.com/dl.php?f=Qed8421DZgbE
    17
    http://www.filecondo.com/dl.php?f=hd79ca1DZgcB
    18
    http://www.filecondo.com/dl.php?f=r80f6e1DZgdA
    19
    http://www.filecondo.com/dl.php?f=Ie4fc81DZgex
    20
    http://www.filecondo.com/dl.php?f=Zff4b51DZgfv
    21
    http://www.filecondo.com/dl.php?f=Ed88271DZggt
    22
    http://www.filecondo.com/dl.php?f=l8ef8d1DZghr
    23
    http://www.filecondo.com/dl.php?f=Hb87f21DZgio
    24
    http://www.filecondo.com/dl.php?f=uc19951DZgjo
    25
    http://www.filecondo.com/dl.php?f=a729c01DZgkm

  2. The Following User Says Thank You to Duckload.us For This Useful Post:

    dorapao (06-13-2018)

  3. #2
    Junior Member
    Join Date
    Jun 2018
    Posts
    3
    Thanks
    36
    Thanked 0 Times in 0 Posts
    ตอนที่ 23 -> file not found ค่ะ

+ Reply to Thread

Thread Information

Users Browsing this Thread

There are currently 1 users browsing this thread. (0 members and 1 guests)

     

Posting Permissions

  • You may not post new threads
  • You may not post replies
  • You may not post attachments
  • You may not edit your posts