ภาพยนตร์อนิเมชั่นที่ครบเครื่องเรื่องล่าสุดของ ชาริล บีนและพอล ฟิชเชอร์
นินจาวัยรุ่นทั้งหกคน ที่ได้รับมอบหมายให้ปกป้องเกาะบ้านเกิด “นินจาโก”!

••• [email protected] •••
พากย์ไทยโรง 2.0 AC-3 / AAC




wrote:

Lego Ninjago Movie ในการผจญภัยของNinjago บนจอยักษ์การต่อสู้เพื่อเมืองนินจาโกที่ต้องอาศัยลอย ด์ผู้เยาว์วัย หรือในชื่อว่านินจาเขียว

พร้อมกับเพื่อนๆ ของเขาที่ล้วนเป็นนักรบปริศนาและ LEGO Master Builders ที่นำโดย ปรมาจารย์กังฟูวู ผู้มีความอัจฉริยะปราดเปรื่องพวกเขาต้องต่อสู้เอาชนะ ผู้นำที่ชั่วร้ายอย่างการ์มาดอน ผู้ร้ายตลอดกาลที่กลายเป็นพ่อของลอยด์ การเผชิญหน้าระหว่างจักรกลต่อจักรกล พ่อกับลูก การเผชิญหน้าครั้งใหญ่นี้จะเป็นบททดสอบนินจารุ่นใหม่ ที่มีความโหดเหี้ยมแต่ไร้ระเบียบวินัยซึ่งพวกเขาจะได ้เรียนรู้วิธีตรวจสอบอีโก้ของตัวเอง และรู้จักควบคุมอารมณ์เพื่อแสดงพลังที่แท้จริงของพวก เขาออกมา



wrote:

Format : Matroska
File size : 2.54 GiB
Duration : 1 h 30 min
Overall bit rate : 4 020 kb/s

Movie name : The.LEGO.Ninjago.Movie.2017.720p.TS.x264.ThaiRong2 [email protected]

Video
ID : 1
Format : AVC
Format/Info : Advanced Video Codec
Format profile : [email protected]
Format settings, CABAC : Yes
Format settings, ReFrames : 12 frames
Codec ID : V_MPEG4/ISO/AVC
Duration : 1 h 30 min
Bit rate mode : Variable
Bit rate : 3 640 kb/s
Maximum bit rate : 22.0 Mb/s
Width : 1 280 pixels
Height : 500 pixels
Display aspect ratio : 2.560
Frame rate mode : Constant
Frame rate : 23.976 (24000/1001) FPS
Standard : Component
Color space : YUV
Chroma subsampling : 4:2:0
Bit depth : 8 bits
Scan type : Progressive
Bits/(Pixel*Frame) : 0.237
Stream size : 2.29 GiB (90%)
Title : The.LEGO.Ninjago.Movie.2017.720p.TS.x264.ThaiRong2 [email protected]
Writing library : x264 core 148
Encoding settings : cabac=1 / ref=12 / deblock=1:0:0 / analyse=0x3:0x3 / me=dia / subme=1 / psy=1 / psy_rd=1.00:0.00 / mixed_ref=0 / me_range=16 / chroma_me=1 / trellis=0 / 8x8dct=1 / cqm=1 / deadzone=21,11 / fast_pskip=1 / chroma_qp_offset=0 / threads=12 / lookahead_threads=2 / sliced_threads=0 / slices=1 / nr=0 / decimate=1 / interlaced=0 / minigop=0 / stitchable=1 / constrained_intra=0 / bframes=3 / b_pyramid=0 / b_adapt=0 / b_bias=0 / direct=1 / weightb=1 / open_gop=1 / weightp=0 / keyint=250 / keyint_min=23 / scenecut=40 / intra_refresh=0 / rc_lookahead=0 / rc=abr / mbtree=0 / bitrate=3640 / ratetol=1.0 / qcomp=0.60 / qpmin=1 / qpmax=69 / qpstep=4 / vbv_maxrate=22000 / vbv_bufsize=22000 / nal_hrd=vbr / filler=0 / ip_ratio=1.40 / pb_ratio=1.30 / aq=1:1.00
Language : Russian
Default : Yes
Forced : No
Color range : Limited
Color primaries : BT.709
Transfer characteristics : BT.709
Matrix coefficients : BT.709

Audio #1
ID : 2
Format : AC-3
Format/Info : Audio Coding 3
Mode extension : CM (complete main)
Format settings, Endianness : Big
Codec ID : A_AC3
Duration : 1 h 30 min
Bit rate mode : Constant
Bit rate : 192 kb/s
Channel(s) : 2 channels
Channel positions : Front: L R
Sampling rate : 48.0 kHz
Frame rate : 31.250 FPS (1536 spf)
Bit depth : 16 bits
Compression mode : Lossy
Stream size : 124 MiB (5%)
Title : ThaiRong 2.0 AC-3 By ~Mr.Captain~
Language : Thai
Default : Yes
Forced : No

Audio #2
ID : 3
Format : AAC
Format/Info : Advanced Audio Codec
Format profile : Main
Codec ID : A_AAC
Duration : 1 h 30 min
Bit rate : 192 kb/s
Channel(s) : 2 channels
Channel positions : Front: L R
Sampling rate : 48.0 kHz
Frame rate : 46.875 FPS (1024 spf)
Compression mode : Lossy
Stream size : 124 MiB (5%)
Title : ThaiRong 2.0 AAC By ~Mr.Captain~
Language : Thai
Default : No
Forced : No



wrote:













Download: cornfile
http://cornfile.com/2auyplo3rr2b
Download: mekafile
http://www.mekafile.com/dl.php?f=SU5e8ebwi10a