The.Emoji.Movie.2017.2017.1080p.BDRip.THR.mkv
Format : Matroska
Format version : Version 4 / Version 2
File size : 3.79 GiB
Duration : 1 h 26 min
Overall bit rate : 6 297 kb/s
Encoded date : UTC 2017-10-11 15:43:26
Writing application : mkvmerge v15.0.0 ('Duel with the Devil') 64-bit
Writing library : libebml v1.3.5 + libmatroska v1.4.5

Video
ID : 1
Format : AVC
Format/Info : Advanced Video Codec
Format profile : [email protected]
Format settings, CABAC : Yes
Format settings, ReFrames : 5 frames
Codec ID : V_MPEG4/ISO/AVC
Duration : 1 h 25 min
Bit rate : 5 787 kb/s
Width : 1 920 pixels
Height : 800 pixels
Display aspect ratio : 2.40:1
Frame rate mode : Constant
Frame rate : 23.976 (24000/1001) FPS
Color space : YUV
Chroma subsampling : 4:2:0
Bit depth : 8 bits
Scan type : Progressive
Bits/(Pixel*Frame) : 0.157
Stream size : 3.47 GiB (91%)
Default : Yes
Forced : No

Audio #1
ID : 2
Format : AC-3
Format/Info : Audio Coding 3
Format settings, Endianness : Big
Codec ID : A_AC3
Duration : 1 h 20 min
Bit rate mode : Constant
Bit rate : 192 kb/s
Channel(s) : 2 channels
Channel positions : Front: L R
Sampling rate : 48.0 kHz
Frame rate : 31.250 FPS (1536 spf)
Bit depth : 16 bits
Compression mode : Lossy
Stream size : 111 MiB (3%)
Title : ThaiRong AC-3 2.0
Language : Thai
Service kind : Complete Main
Default : Yes
Forced : Yes

Audio #2
ID : 3
Format : AC-3
Format/Info : Audio Coding 3
Format settings, Endianness : Big
Codec ID : A_AC3
Duration : 1 h 20 min
Bit rate mode : Constant
Bit rate : 384 kb/s
Channel(s) : 2 channels
Channel positions : Front: L R
Sampling rate : 48.0 kHz
Frame rate : 31.250 FPS (1536 spf)
Bit depth : 16 bits
Compression mode : Lossy
Stream size : 221 MiB (6%)
Title : English AC-3 2.0
Language : English
Service kind : Complete Main
Default : No
Forced : No







ͧšͧ ѹ˹觼Ͷ͡ ԴʴżԴҴ ͧҨҡԴҴͧ Ңͧͧͧҧ ҨзšͧԵͧ١ź Ԩ֧ͧ͡Թҧѧʶҹ ʶҹóԴ





The.Emoji.Movie.2017.1080p.BDRip.THR.mkv


>>Ѥ VIP cornfile <<

>> ԸѤ VIP cornfile <<





1 PART

DOWNLOAD

Ըѭ Google ÿ - Թǵ





1 PART

DOWNLOAD




V.1

PART1

PART2

PART3

PART4



V.2


PART1

PART2

PART3

PART4


PASS: https://enthdmovieclub.blogspot.com/

### #### V.1,V.2 ءҷ Ŵ᷹ѹ ¹çѹ͹###


ԴѾവͧ

https://enthdmovieclub.blogspot.com/