+ Reply to Thread
Results 1 to 4 of 4
  1. #1
    Administrators Duckload.us's Avatar
    Join Date
    Dec 2010
    Posts
    81,645
    Thanks
    9
    Thanked 87,266 Times in 41,606 Posts

    Question [ฝรั่ง]-[Mini-HD]-[ เวอร์ชั่น Original Uncut ฉบับเต็มไม่มีตัด ] The Dreamers : Original Uncut (2003) รักตามฝัน ไม่มีวันสลาย [1080p HQ.] [เสียงไทยมาสเตอร์ 5.1 + ENG DTS ] [บรรยายไทย + อังกฤษ] [เสียง + ซับ From MASTER : + ซับไทย PGS คมชัดถึงใจ]

    cornfile.com


    The Dreamers ภาพยนตร์แนว Erotic - Drama ของผู้กำกับชั้นครูชาวอิตาลีอย่าง Bernardo Bertolucci (เบอร์นาร์โด เบอร์โตลุคชี่) ดีกรีเจ้าของรางวัลออสการ์จากผลงานภาพยนตร์เรื่อง The Last Emperor จักรพรรดิโลกไม่ลืม ในปี 1987 และแสดงนำโดย Eva Green (อีวา กรีน) ดาราสาวสวยขวัญใจหนุ่ม ๆ หลายคน จากผลงานหนังดังอย่าง James Bond 007 : Casino Royale ในปี 2006 และ Dark Shadows แวมไพร์มึนยุค ในปี 2012

    The Dreamers เป็นภาพยนตร์เรื่องหนึ่งที่ถูกพูดถึงอย่างมากในปี 2003 หนังเรื่องนี้ดัดแปลงมาจากนวนิยาย The Holy Innocents ของ Gilbert Adair (กิลเบิร์ค อแดร์) สู่เรื่องราวบนจอเงินสุดอื้อฉาว เพราะหนังเรื่องนี้ มีฉากเลิฟซีนแบบโจ๋งครึ้ม เรียกว่าเห็นหมดทุกอณูเนื้อ ทุกรูขุมขน และหนังเรื่องนี้ยังได้รับการโหวตติด 1 ใน 10 หนังที่มีฉากอีโรติกอันน่าจดจำตลอดกาล และงานนี้ที่ผมนำเสนอเป็นตัว Original Uncut ไม่มีการตัดทุกฉากในหนัง เรียกว่าเห็นหมดทุกซีน ทุกฉากครับ
    Complete name : D:xxxThe Dreamers (2003) รักตามฝันไม่มีวันสลายThe.Dreamers.2003.Uncut.1080p .BluRay.DTS.x264.THMASTER_hdsiambit.me.siambit.me. netThe.Dreamers.2003.1080p.BluRay.DTS.x264.THMASTE R ENCODE BY SAKWOR .mkv
    Format : Matroska
    Format version : Version 4 / Version 2
    File size : 3.76 GiB
    Duration : 1h 54mn
    Overall bit rate : 4 696 Kbps
    Movie name : The.Dreamers.2003.1080p.BluRay.DTS.x264.THMASTER-sakwor
    Encoded date : UTC 2014-02-20 00:47:03
    Writing application : mkvmerge v6.0.0 ( Coming Up For Air ) built on Jan 20 2013 09:52:00
    Writing library : libebml v1.3.0 + libmatroska v1.4.0

    Video
    ID : 1
    Format : AVC
    Format/Info : Advanced Video Codec
    Format profile : [email protected]
    Format settings, CABAC : Yes
    Format settings, ReFrames : 5 frames
    Codec ID : V_MPEG4/ISO/AVC
    Duration : 1h 54mn
    Bit rate : 2 700 Kbps
    Width : 1 920 pixels
    Height : 1 080 pixels
    Display aspect ratio : 16:9
    Frame rate mode : Constant
    Frame rate : 24.000 fps
    Color space : YUV
    Chroma subsampling : 4:2:0
    Bit depth : 8 bits
    Scan type : Progressive
    Bits/(Pixel*Frame) : 0.054
    Stream size : 2.12 GiB (56%)
    Title : The.Dreamers.2003.1080p.BluRay.DTS.x264.THMASTER ENCODE BY SAKWOR
    Writing library : x264 core 116 r2019M 9cc407d
    Encoding settings : cabac=1 / ref=6 / deblock=1:0:0 / analyse=0x3:0x133 / me=hex / subme=7 / psy=1 / psy_rd=1.00:0.20 / mixed_ref=1 / me_range=16 / chroma_me=1 / trellis=1 / 8x8dct=1 / cqm=0 / deadzone=21,11 / fast_pskip=1 / chroma_qp_offset=-3 / threads=8 / sliced_threads=0 / nr=0 / decimate=1 / interlaced=0 / bluray_compat=0 / constrained_intra=0 / bframes=3 / b_pyramid=1 / b_adapt=2 / b_bias=0 / direct=3 / weightb=1 / open_gop=0 / weightp=2 / keyint=240 / keyint_min=24 / scenecut=40 / intra_refresh=0 / rc_lookahead=40 / rc=2pass / mbtree=1 / bitrate=2700 / ratetol=1.0 / qcomp=0.60 / qpmin=10 / qpmax=51 / qpstep=4 / cplxblur=20.0 / qblur=0.5 / vbv_maxrate=31250 / vbv_bufsize=62500 / nal_hrd=none / ip_ratio=1.40 / aq=1:1.00
    Language : English
    Default : Yes
    Forced : No

    Audio #1
    ID : 2
    Format : AC-3
    Format/Info : Audio Coding 3
    Mode extension : CM (complete main)
    Format settings, Endianness : Big
    Codec ID : A_AC3
    Duration : 1h 54mn
    Bit rate mode : Constant
    Bit rate : 448 Kbps
    Channel(s) : 6 channels
    Channel positions : Front: L C R, Side: L R, LFE
    Sampling rate : 48.0 KHz
    Bit depth : 16 bits
    Compression mode : Lossy
    Stream size : 367 MiB (10%)
    Title : TH 5.1
    Language : Thai
    Default : Yes
    Forced : Yes

    Audio #2
    ID : 3
    Format : DTS
    Format/Info : Digital Theater Systems
    Mode : 16
    Format settings, Endianness : Big
    Codec ID : A_DTS
    Duration : 1h 54mn
    Bit rate mode : Constant
    Bit rate : 1 509 Kbps
    Channel(s) : 6 channels
    Channel positions : Front: L C R, Side: L R, LFE
    Sampling rate : 48.0 KHz
    Bit depth : 24 bits
    Compression mode : Lossy
    Stream size : 1.21 GiB (32%)
    Title : EN DTS
    Language : English
    Default : No
    Forced : No

    Text #1
    ID : 4
    Format : VobSub
    Codec ID : S_VOBSUB
    Codec ID/Info : The same subtitle format used on DVDs
    Title : TH DVD
    Language : Thai
    Default : No
    Forced : No

    Text #2
    ID : 5
    Format : VobSub
    Codec ID : S_VOBSUB
    Codec ID/Info : The same subtitle format used on DVDs
    Title : TH 480P
    Language : Thai
    Default : No
    Forced : No

    Text #3
    ID : 6
    Format : VobSub
    Codec ID : S_VOBSUB
    Codec ID/Info : The same subtitle format used on DVDs
    Title : TH 1080P
    Language : Thai
    Default : Yes
    Forced : Yes

    Text #4
    ID : 7
    Format : UTF-8
    Codec ID : S_TEXT/UTF8
    Codec ID/Info : UTF-8 Plain Text
    Title : EN SRT
    Language : English
    Default : No
    Forced : No

    Text #5
    ID : 8
    Format : UTF-8
    Codec ID : S_TEXT/UTF8
    Codec ID/Info : UTF-8 Plain Text
    Title : TH SRT
    Language : Thai
    Default : No
    Forced : No

    Text #6
    ID : 9
    Format : PGS
    Codec ID : S_HDMV/PGS
    Codec ID/Info : The same subtitle format used on BDs/HD-DVDs
    Title : TH PGS
    Language : Thai
    Default : No
    Forced : No






    Download: cornfile
    http://cornfile.com/a9htnmgf190h
    Download: mekafile
    http://www.mekafile.com/dl.php?f=kh006abx240D

  2. The Following 5 Users Say Thank You to Duckload.us For This Useful Post:

    amorn wichian (11-01-2017), gaszolineskywalker (11-15-2017), noi54 (11-01-2017), oxy (11-15-2017), xchamp (11-03-2017)

  3. #2
    Senior Member
    Join Date
    Oct 2013
    Posts
    564
    Thanks
    0
    Thanked 0 Times in 0 Posts
    ขอบคุณครับ

  4. #3
    Senior Member
    Join Date
    Sep 2014
    Posts
    2,426
    Thanks
    2
    Thanked 0 Times in 0 Posts
    Thanks a bunch.

  5. #4
    Senior Member
    Join Date
    Oct 2012
    Posts
    268
    Thanks
    625
    Thanked 0 Times in 0 Posts
    จัดว่าเด็ด

+ Reply to Thread

Thread Information

Users Browsing this Thread

There are currently 1 users browsing this thread. (0 members and 1 guests)

     

Posting Permissions

  • You may not post new threads
  • You may not post replies
  • You may not post attachments
  • You may not edit your posts