+ Reply to Thread
Results 1 to 4 of 4
  1. #1
    Administrators Duckload.us's Avatar
    Join Date
    Dec 2010
    Posts
    103,694
    Thanks
    9
    Thanked 106,632 Times in 50,445 Posts

    Lightbulb [เกาหลี]-[MKV] I Remember You อัจฉริยะพลิกปมปริศนา [Ep 01-16 END] เสียงไทย AAC 2.0 ch / เสียงเกาหลี AAC 2.0 ch + Thai Sub SRT-Encode.H.264.720p. [From HD-TV]-[พากย์ไทย]


    Drama: I Remember You
    Hangul: ? ? ? ? ?
    Director: No Sang-Hoon
    Writer: Kwon Ki-Young
    Network: KBS2
    Episodes: 16
    Release Date: June 22 - August 11, 2015 (22 มิถุนายน 2015 – 11 สิงหาคม 2558)
    Runtime: Mon & Tue 21:55 จันทร์ – อังคาร [เวลา 21:55 น. เวลาเกาหลี] [เวลา 19:55 น. เวลาไทย]
    Language: Korean
    Country: South Korea



    เรื่องย่อ

    I Remember You เป็นซีรี่ย์ที่จะออกอากาศต่อจากเรื่อง Who Are You School 2015 ทาง KBS2 เป็นเรื่องราวกับ DSI โดย Lee Hyun (Seo In Guk) เคยทำงานให้กรมสอบสวนคดีพิเศษที่นิวยอร์ก และได้ย้ายมาทำงานที่เกาหลีประจำหน่วยกรมสอบสวนคดีพิ เศษ ซึ่งเขามีความสามารถในการวิเคราะเหตุการณ์และผู้ต้อง สงสัยได้อย่างรวดเร็ว นอกจากนี้เขายังทำงานร่วมกับนักสืบสาวสวยอย่าง Cha Ji An (Jang NaRa) เพื่อร่วมกันแก้ไขปัญหาจากคดีอาชญากรรม ซึ่งนี่เอง..คือจุดเริ่มต้นที่ทำให้พวกเขาพัฒนาความส ัมพันธ์อันแสนโรแมนติก


    MEDIAINFO


    Format : Matroska
    Format version : Version 4 / Version 2
    File size : 1.60 GiB
    Duration : 58 min 46 s
    Overall bit rate : 3 891 kb/s
    Movie name : I.Remember.You.E04.150630.HDTV.H264.720p-WITH
    Encoded date : UTC 2017-10-17 03:58:58
    Writing application : mkvmerge v16.0.0 ( Protest ) 64-bit
    Writing library : libebml v1.3.5 + libmatroska v1.4.8

    Video
    ID : 1
    Format : AVC
    Format/Info : Advanced Video Codec
    Format profile : [email protected]
    Format settings, CABAC : Yes
    Format settings, RefFrames : 2 frames
    Format settings, GOP : M=3, N=13
    Codec ID : V_MPEG4/ISO/AVC
    Duration : 58 min 46 s
    Bit rate : 3 503 kb/s
    Width : 1 280 pixels
    Height : 720 pixels
    Display aspect ratio : 16:9
    Frame rate mode : Constant
    Frame rate : 29.970 (29970/1000) FPS
    Color space : YUV
    Chroma subsampling : 4:2:0
    Bit depth : 8 bits
    Scan type : Progressive
    Bits/(Pixel*Frame) : 0.127
    Stream size : 1.44 GiB (90%)
    Language : English
    Default : Yes
    Forced : No

    Audio #1
    ID : 2
    Format : AAC
    Format/Info : Advanced Audio Codec
    Format profile : LC
    Codec ID : A_AAC
    Duration : 58 min 46 s
    Bit rate : 192 kb/s
    Channel(s) : 2 channels
    Channel positions : Front: L R
    Sampling rate : 48.0 kHz
    Frame rate : 46.875 FPS (1024 SPF)
    Compression mode : Lossy
    Stream size : 80.7 MiB (5%)
    Language : Thai
    Default : Yes
    Forced : No

    Audio #2
    ID : 3
    Format : AAC
    Format/Info : Advanced Audio Codec
    Format profile : LC
    Codec ID : A_AAC
    Duration : 58 min 46 s
    Bit rate : 192 kb/s
    Channel(s) : 2 channels
    Channel positions : Front: L R
    Sampling rate : 48.0 kHz
    Frame rate : 46.875 FPS (1024 SPF)
    Compression mode : Lossy
    Stream size : 80.7 MiB (5%)
    Language : Korean
    Default : No
    Forced : No

    Text
    ID : 4
    Format : UTF-8
    Codec ID : S_TEXT/UTF8
    Codec ID/Info : UTF-8 Plain Text
    Duration : 58 min 45 s
    Bit rate : 118 b/s
    Count of elements : 608
    Stream size : 51.1 KiB (0%)
    Title : Thai
    Language : Thai
    Default : Yes
    Forced : No


    *** REMARK***

    - จะมีตอนที่ 7 ตอนต้นตอนจะเป็นเสียงเกาหลีประมาณ 30 วินาที / OK เก็บเรียบร้อย





    1
    http://www.filecondo.com/dl.php?f=Ee7e231EbEW6
    2
    http://www.filecondo.com/dl.php?f=848c1c1EbEX5
    3
    http://www.filecondo.com/dl.php?f=n231531EbEY1
    4
    http://www.filecondo.com/dl.php?f=x9ab3c1EbEZ1
    5
    http://www.filecondo.com/dl.php?f=Bfe1101EdIWn
    6
    http://www.filecondo.com/dl.php?f=v5dac41EdIXn
    7
    http://www.filecondo.com/dl.php?f=g28db21EdIYl
    8
    http://www.filecondo.com/dl.php?f=A648541EdIZh
    9
    http://www.filecondo.com/dl.php?f=2c853d1EglFe
    10
    http://www.filecondo.com/dl.php?f=z9f5b21EglGb
    11
    http://www.filecondo.com/dl.php?f=64eb921EglHd
    12
    http://www.filecondo.com/dl.php?f=a88a681EglIb
    13
    http://www.filecondo.com/dl.php?f=A297aa1EimHI
    14
    http://www.filecondo.com/dl.php?f=W322b01HrBxV fix
    15
    http://www.filecondo.com/dl.php?f=w718381HrByT fix
    16
    http://www.filecondo.com/dl.php?f=y36cfe1EimKC

  2. The Following User Says Thank You to Duckload.us For This Useful Post:

    gaszolineskywalker (11-08-2017)

  3. #2
    Senior Member
    Join Date
    Oct 2012
    Posts
    599
    Thanks
    1,536
    Thanked 0 Times in 0 Posts
    ขอบคุณมากครับ รอต่อจนจบเลยนะครับ ^^

  4. #3
    Administrators Duckload.us's Avatar
    Join Date
    Dec 2010
    Posts
    103,694
    Thanks
    9
    Thanked 106,632 Times in 50,445 Posts
    [เกาหลี]-[MKV] I Remember You อัจฉริยะพลิกปมปริศนา [Ep 01-16 END] เสียงไทย AAC 2.0 ch / เสียงเกาหลี AAC 2.0 ch + Thai Sub SRT-Encode.H.264.720p. [From HD-TV]-[พากย์ไทย]

  5. #4
    Senior Member
    Join Date
    Oct 2012
    Posts
    599
    Thanks
    1,536
    Thanked 0 Times in 0 Posts
    เย้!!!! จบแล้วววววว ขอบคุณมากครับ

+ Reply to Thread

Thread Information

Users Browsing this Thread

There are currently 1 users browsing this thread. (0 members and 1 guests)

     

Posting Permissions

  • You may not post new threads
  • You may not post replies
  • You may not post attachments
  • You may not edit your posts