เรื่องย่อ
พวกเขาคือความลับชั้นสุดยอดของจักรวาล ปฎิบัติภารกิจโดยไม่มีผู้ใดล่วงรู้ ในฐานะตัวแทนของรัฐบาลเคย์ (ทอมมี่ ลี โจนส์) และ เจย์ (วิลล์ สมิธ) คือ Men In Blackเจ้าหน้าที่ตรวจการเดินทาง และจัดระเบียบสำหรับผู้มาเยือนจากต่างดาว ถ้าพวกมันละเมิดกฎเมื่อใด พวกเขาคือเแนวป้องกันด่านแรกด่านเดียวและ ดี่ที่สุดเพราะพวกเขาคือบุรุษชุดดำ ผู้พิทักษ์โลกจากเหล่าเดนจักรวาล

General
Unique ID : 235951041238000941471754229175786633336 (0xB182847FA95E4FE89280FD46B11B7878)
Complete name : [Mini HD] Men in Black I (1997).mkv
Format : Matroska
Format version : Version 4 / Version 2
File size : 4.31 GiB
Duration : 1 h 37 min
Overall bit rate : 6 301 kb/s
Encoded date : UTC 2017-11-06 08:35:14 / UTC 2017-11-03T04:08:23Z
Writing application : mkvmerge v8.3.0 ( Over the Horizon ) 64bit
Writing library : libebml v1.3.1 + libmatroska v1.4.2 / Lavf55.12.0

Video
ID : 1
Format : AVC
Format/Info : Advanced Video Codec
Format profile : [email protected]
Format settings, CABAC : Yes
Format settings, ReFrames : 4 frames
Codec ID : V_MPEG4/ISO/AVC
Duration : 1 h 37 min
Bit rate : 4 639 kb/s
Width : 1 920 pixels
Height : 1 040 pixels
Display aspect ratio : 1.85:1
Frame rate mode : Constant
Frame rate : 23.976 (24000/1001) FPS
Color space : YUV
Chroma subsampling : 4:2:0
Bit depth : 8 bits
Scan type : Progressive
Bits/(Pixel*Frame) : 0.097
Stream size : 3.18 GiB (74%)
Writing library : x264 core 142 r2479 dd79a61
Encoding settings : cabac=1 / ref=1 / deblock=1:0:0 / analyse=0x1:0x111 / me=hex / subme=2 / psy=1 / psy_rd=1.00:0.00 / mixed_ref=0 / me_range=16 / chroma_me=1 / trellis=0 / 8x8dct=0 / cqm=0 / deadzone=21,11 / fast_pskip=1 / chroma_qp_offset=0 / threads=6 / lookahead_threads=2 / sliced_threads=0 / nr=0 / decimate=1 / interlaced=0 / bluray_compat=0 / constrained_intra=0 / bframes=3 / b_pyramid=2 / b_adapt=1 / b_bias=0 / direct=1 / weightb=1 / open_gop=0 / weightp=1 / keyint=240 / keyint_min=24 / scenecut=40 / intra_refresh=0 / rc_lookahead=10 / rc=crf / mbtree=1 / crf=21.0 / qcomp=0.60 / qpmin=0 / qpmax=69 / qpstep=4 / vbv_maxrate=20000 / vbv_bufsize=25000 / crf_max=0.0 / nal_hrd=none / filler=0 / ip_ratio=1.40 / aq=1:1.00
Language : Thai
Default : Yes
Forced : Yes
Color range : Limited
Color primaries : BT.709
Transfer characteristics : BT.709
Matrix coefficients : BT.709
Statistics Tags Issue : mkvmerge v8.3.0 ( Over the Horizon ) 64bit 2017-11-06 08:35:14 / mkvmerge v8.3.0 ( Over the Horizon ) 64bit 2017-11-06 08:35:14 / UTC 2017-11-03T04:08:23Z
FromStats_BitRate : 4714784
FromStats_Duration : 01:37:58.871000000
FromStats_FrameCount : 140952
FromStats_StreamSize : 3464701116

Audio #1
ID : 2
Format : AC-3
Format/Info : Audio Coding 3
Mode extension : CM (complete main)
Format settings, Endianness : Big
Codec ID : A_AC3
Duration : 1 h 37 min
Bit rate mode : Constant
Bit rate : 448 kb/s
Channel(s) : 6 channels
Channel positions : Front: L C R, Side: L R, LFE
Sampling rate : 48.0 kHz
Frame rate : 31.250 FPS (1536 spf)
Compression mode : Lossy
Stream size : 314 MiB (7%)
Title : Surround
Language : English
Default : No
Forced : No
Statistics Tags Issue : mkvmerge v8.3.0 ( Over the Horizon ) 64bit 2017-11-06 08:35:14 / mkvmerge v8.3.0 ( Over the Horizon ) 64bit 2017-11-06 08:35:14 / UTC 2017-11-03T04:08:23Z
FromStats_BitRate : 448000
FromStats_Duration : 01:37:58.880000000
FromStats_FrameCount : 183715
FromStats_StreamSize : 329217280

Audio #2
ID : 3
Format : AC-3
Format/Info : Audio Coding 3
Mode extension : CM (complete main)
Format settings, Endianness : Big
Codec ID : A_AC3
Duration : 1 h 37 min
Bit rate mode : Constant
Bit rate : 640 kb/s
Channel(s) : 6 channels
Channel positions : Front: L C R, Side: L R, LFE
Sampling rate : 48.0 kHz
Frame rate : 31.250 FPS (1536 spf)
Compression mode : Lossy
Delay relative to video : -5 ms
Stream size : 449 MiB (10%)
Title : Surround
Language : English
Default : No
Forced : No
Statistics Tags Issue : mkvmerge v8.3.0 ( Over the Horizon ) 64bit 2017-11-06 08:35:14 / mkvmerge v8.3.0 ( Over the Horizon ) 64bit 2017-11-06 08:35:14 / UTC 2017-11-03T04:08:23Z
FromStats_BitRate : 640000
FromStats_Duration : 01:37:58.848000000
FromStats_FrameCount : 183714
FromStats_StreamSize : 470307840

Audio #3
ID : 4
Format : AC-3
Format/Info : Audio Coding 3
Mode extension : CM (complete main)
Format settings, Endianness : Big
Codec ID : A_AC3
Duration : 1 h 37 min
Bit rate mode : Constant
Bit rate : 448 kb/s
Channel(s) : 6 channels
Channel positions : Front: L C R, Side: L R, LFE
Sampling rate : 48.0 kHz
Frame rate : 31.250 FPS (1536 spf)
Compression mode : Lossy
Stream size : 314 MiB (7%)
Title : Surround
Language : Thai
Default : Yes
Forced : Yes
Statistics Tags Issue : mkvmerge v8.3.0 ( Over the Horizon ) 64bit 2017-11-06 08:35:14 / mkvmerge v8.3.0 ( Over the Horizon ) 64bit 2017-11-06 08:35:14 / UTC 2017-11-03T04:08:23Z
FromStats_BitRate : 448000
FromStats_Duration : 01:37:58.880000000
FromStats_FrameCount : 183715
FromStats_StreamSize : 329217280

Text #1
ID : 5
Format : PGS
Muxing mode : zlib
Codec ID : S_HDMV/PGS
Codec ID/Info : Picture based subtitle format used on BDs/HD-DVDs
Language : English
Default : No
Forced : No
Statistics Tags Issue : mkvmerge v8.3.0 ( Over the Horizon ) 64bit 2017-11-06 08:35:14 / mkvmerge v8.3.0 ( Over the Horizon ) 64bit 2017-11-06 08:35:14 / UTC 2017-11-03T04:08:23Z
FromStats_BitRate : 15360
FromStats_Duration : 01:27:13.187000000
FromStats_FrameCount : 2066
FromStats_StreamSize : 10048183

Text #2
ID : 6
Format : PGS
Muxing mode : zlib
Codec ID : S_HDMV/PGS
Codec ID/Info : Picture based subtitle format used on BDs/HD-DVDs
Language : English
Default : No
Forced : No
Statistics Tags Issue : mkvmerge v8.3.0 ( Over the Horizon ) 64bit 2017-11-06 08:35:14 / mkvmerge v8.3.0 ( Over the Horizon ) 64bit 2017-11-06 08:35:14 / UTC 2017-11-03T04:08:23Z
FromStats_BitRate : 16451
FromStats_Duration : 01:35:09.412000000
FromStats_FrameCount : 3277
FromStats_StreamSize : 11741017

Text #3
ID : 7
Format : PGS
Muxing mode : zlib
Codec ID : S_HDMV/PGS
Codec ID/Info : Picture based subtitle format used on BDs/HD-DVDs
Language : Thai
Default : Yes
Forced : Yes
Statistics Tags Issue : mkvmerge v8.3.0 ( Over the Horizon ) 64bit 2017-11-06 08:35:14 / mkvmerge v8.3.0 ( Over the Horizon ) 64bit 2017-11-06 08:35:14 / UTC 2017-11-03T04:08:23Z
FromStats_BitRate : 19634
FromStats_Duration : 01:27:13.187000000
FromStats_FrameCount : 2706
FromStats_StreamSize : 12843909



เรื่องย่อ

ตลอดระยะเวลา 4 ปี นับจากเจ้าหน้าที่ทั้งสองร่วมแรงกันปัดเป่าภัยพิบัติ ของห้วงจักรวาลนั้น เคย์ได้หวนคืนสู่ชีวิตแบบมนุษย์ปกติ ขณะที่เจย์เข้ารับตำแหน่งแทนอดีตคู่หูในฐานะลูกจ้างผ ู้ทรงประสิทธิภาพที่สุดแห่งหน่วยงานอันไม่เป็นทางการ ของรัฐบาล ซึ่งมีหน้าที่จัดการเอเลี่ยนทุกประเภทบนพื้นโลกระหว่ างการออกสำรวจอาชญากรรมของเอเลี่ยนตามปกตินั้นเจย์กล ับค้นพบแผนการชั่วร้ายของ เซอร์ลีน่า (ลาร่า ฟลินน์ บอยล์) ศัตรูจากดาวไคโลเธียนผู้ซ่อนตัวตนที่แท้จริงไว้ภายใต ้คราบของนางแบบชุดชั้นในสุดเซ็กซี่ กับเพื่อนร่วมแก๊งสองหัวแต่มีสติปัญญาครึ่งเดียวนาม สแคร็ด / ชาร์ลี (จอห์นนี่ น็อกซ์วิลล์) โดยมีเพียงบุคคลเดียวเท่านั้นที่ล่วงรู้ปฏิบัติการลั บบนโลกครั้งนี้ของเซอร์ลีน่า
นั่นก็คือ อดีตเจ้าหน้าที่ เคย์ ผู้ซึ่งขณะนี้กำลังปฏิบัติภารกิจอยู่ในหน่วยงานรัฐอี กแห่งหนึ่ง ที่ทำการไปรษณีย์อเมริกาเจ้าหน้าที่เจย์ (สมิธ) กับเคย์ (โจนส์) กลับมาร่วมทีมกันเพื่อต่อสู้กับหญิงสาววายร้ายเจ้าขอ งแผนการที่ยากเข็ ญและท้าทาย MIB มากที่สุด นับตั้งแต่องค์กรแห่งนี้เคยปฏิบัติการปกป้องโลกให้รอ ดพ้นจากเงื้อมมือบรรดาสวะอวกาศทั้งหลาย

General
Unique ID : 211962235324168513101702778359956609061 (0x9F76710D49B2B6128B69786A161F9825)
Complete name :[Mini HD] Men in Black II (2002).mkv
Format : Matroska
Format version : Version 4 / Version 2
File size : 3.44 GiB
Duration : 1 h 28 min
Overall bit rate : 5 592 kb/s
Encoded date : UTC 2017-11-06 08:42:12 / UTC 2017-11-06T03:26:46Z
Writing application : mkvmerge v8.3.0 ( Over the Horizon ) 64bit
Writing library : libebml v1.3.1 + libmatroska v1.4.2 / Lavf55.12.0

Video
ID : 1
Format : AVC
Format/Info : Advanced Video Codec
Format profile : [email protected]
Format settings, CABAC : Yes
Format settings, ReFrames : 4 frames
Codec ID : V_MPEG4/ISO/AVC
Duration : 1 h 28 min
Bit rate : 3 332 kb/s
Width : 1 920 pixels
Height : 1 042 pixels
Display aspect ratio : 1.85:1
Frame rate mode : Constant
Frame rate : 23.976 (24000/1001) FPS
Color space : YUV
Chroma subsampling : 4:2:0
Bit depth : 8 bits
Scan type : Progressive
Bits/(Pixel*Frame) : 0.069
Stream size : 2.05 GiB (60%)
Writing library : x264 core 142 r2479 dd79a61
Encoding settings : cabac=1 / ref=1 / deblock=1:0:0 / analyse=0x1:0x111 / me=hex / subme=2 / psy=1 / psy_rd=1.00:0.00 / mixed_ref=0 / me_range=16 / chroma_me=1 / trellis=0 / 8x8dct=0 / cqm=0 / deadzone=21,11 / fast_pskip=1 / chroma_qp_offset=0 / threads=6 / lookahead_threads=2 / sliced_threads=0 / nr=0 / decimate=1 / interlaced=0 / bluray_compat=0 / constrained_intra=0 / bframes=3 / b_pyramid=2 / b_adapt=1 / b_bias=0 / direct=1 / weightb=1 / open_gop=0 / weightp=1 / keyint=240 / keyint_min=24 / scenecut=40 / intra_refresh=0 / rc_lookahead=10 / rc=crf / mbtree=1 / crf=22.0 / qcomp=0.60 / qpmin=0 / qpmax=69 / qpstep=4 / vbv_maxrate=20000 / vbv_bufsize=25000 / crf_max=0.0 / nal_hrd=none / filler=0 / ip_ratio=1.40 / aq=1:1.00
Language : Thai
Default : Yes
Forced : Yes
Color range : Limited
Color primaries : BT.709
Transfer characteristics : BT.709
Matrix coefficients : BT.709
Statistics Tags Issue : mkvmerge v8.3.0 ( Over the Horizon ) 64bit 2017-11-06 08:42:12 / mkvmerge v8.3.0 ( Over the Horizon ) 64bit 2017-11-06 08:42:12 / UTC 2017-11-06T03:26:46Z
FromStats_BitRate : 3398766
FromStats_Duration : 01:28:08.259000000
FromStats_FrameCount : 126791
FromStats_StreamSize : 2246694719

Audio #1
ID : 2
Format : DTS
Format/Info : Digital Theater Systems
Mode : 16
Format settings, Endianness : Big
Codec ID : A_DTS
Duration : 1 h 28 min
Bit rate mode : Constant
Bit rate : 1 509 kb/s
Channel(s) : 6 channels
Channel positions : Front: L C R, Side: L R, LFE
Sampling rate : 48.0 kHz
Frame rate : 93.750 FPS (512 spf)
Bit depth : 16 bits
Compression mode : Lossy
Stream size : 951 MiB (27%)
Title : Surround
Language : English
Default : No
Forced : No
Statistics Tags Issue : mkvmerge v8.3.0 ( Over the Horizon ) 64bit 2017-11-06 08:42:12 / mkvmerge v8.3.0 ( Over the Horizon ) 64bit 2017-11-06 08:42:12 / UTC 2017-11-06T03:26:46Z
FromStats_BitRate : 1508999
FromStats_Duration : 01:28:08.278000000
FromStats_FrameCount : 495776
FromStats_StreamSize : 997501312

Audio #2
ID : 3
Format : AC-3
Format/Info : Audio Coding 3
Mode extension : CM (complete main)
Format settings, Endianness : Big
Codec ID : A_AC3
Duration : 1 h 28 min
Bit rate mode : Constant
Bit rate : 640 kb/s
Channel(s) : 6 channels
Channel positions : Front: L C R, Side: L R, LFE
Sampling rate : 48.0 kHz
Frame rate : 31.250 FPS (1536 spf)
Compression mode : Lossy
Stream size : 403 MiB (11%)
Title : Surround
Language : Thai
Default : Yes
Forced : Yes
Statistics Tags Issue : mkvmerge v8.3.0 ( Over the Horizon ) 64bit 2017-11-06 08:42:12 / mkvmerge v8.3.0 ( Over the Horizon ) 64bit 2017-11-06 08:42:12 / UTC 2017-11-06T03:26:46Z
FromStats_BitRate : 640000
FromStats_Duration : 01:28:08.288000000
FromStats_FrameCount : 165259
FromStats_StreamSize : 423063040

Text #1
ID : 4
Format : PGS
Muxing mode : zlib
Codec ID : S_HDMV/PGS
Codec ID/Info : Picture based subtitle format used on BDs/HD-DVDs
Language : English
Default : No
Forced : No
Statistics Tags Issue : mkvmerge v8.3.0 ( Over the Horizon ) 64bit 2017-11-06 08:42:12 / mkvmerge v8.3.0 ( Over the Horizon ) 64bit 2017-11-06 08:42:12 / UTC 2017-11-06T03:26:46Z
FromStats_BitRate : 15782
FromStats_Duration : 01:20:00.754000000
FromStats_FrameCount : 2062
FromStats_StreamSize : 9471111

Text #2
ID : 5
Format : PGS
Muxing mode : zlib
Codec ID : S_HDMV/PGS
Codec ID/Info : Picture based subtitle format used on BDs/HD-DVDs
Language : English
Default : No
Forced : No
Statistics Tags Issue : mkvmerge v8.3.0 ( Over the Horizon ) 64bit 2017-11-06 08:42:12 / mkvmerge v8.3.0 ( Over the Horizon ) 64bit 2017-11-06 08:42:12 / UTC 2017-11-06T03:26:46Z
FromStats_BitRate : 15785
FromStats_Duration : 01:20:00.754000000
FromStats_FrameCount : 2062
FromStats_StreamSize : 9472802

Text #3
ID : 6
Format : PGS
Muxing mode : zlib
Codec ID : S_HDMV/PGS
Codec ID/Info : Picture based subtitle format used on BDs/HD-DVDs
Language : Thai
Default : Yes
Forced : Yes
Statistics Tags Issue : mkvmerge v8.3.0 ( Over the Horizon ) 64bit 2017-11-06 08:42:12 / mkvmerge v8.3.0 ( Over the Horizon ) 64bit 2017-11-06 08:42:12 / UTC 2017-11-06T03:26:46Z
FromStats_BitRate : 14362
FromStats_Duration : 01:20:00.754000000
FromStats_FrameCount : 2086
FromStats_StreamSize : 8618922


เรื่องย่อ


Men In Black 3 สายลับ เจ (วิล สมิธ) และ เค (ทอมมี่ ลี โจนส์) กลับมา...แบบทันเวลาตลอด 15 ปีที่อยู่กับหน่วยจารชนพิทักษ์จักรวาลเจได้พบเห็นสิ่ งประหลาดพิศดารมากมาย แต่ไม่มีอะไร หรือแม้แต่บรรดาเอเลี่ยนพิลึกพิลั่นที่จะทำให้เขางุน งงเท่ากับคู่หูหน้าตายและช่างเหน็บแนมของเขาได้อีกแล ้วจนเมื่อชีวิตของเคและชะตากรรมของโลกตกอยู่ในอันตรา ย สายลับเจจึงต้องเดินทางย้อนเวลาเพื่อแก้ไขทุกอย่างให ้ถูกต้อง นั่นทำให้เจพบว่ายังมีความลึกลับอีกมากมายในจักรวาลท ี่เคไม่เคยบอกเขา ซึ่งมันจะถูกเปิดเผยออกมา เมื่อเขาร่วมทีมกับสายลับเคในวัยหนุ่ม (จอช โบรลิน) เพื่อพิทักษ์ชีวิตคู่หูของเขา หน่วยงานเอ็มไอบี และอนาคตของมนุษยชาติ

General
Unique ID : 254428768052019076938147008636718921958 (0xBF6932C479FD5681811053EF0173B8E6)
Complete name :[Mini HD] Men in Black III (2012).mkv
Format : Matroska
Format version : Version 4 / Version 2
File size : 4.37 GiB
Duration : 1 h 45 min
Overall bit rate : 5 911 kb/s
Encoded date : UTC 2017-11-06 08:46:02 / UTC 2017-11-06T05:41:50Z
Writing application : mkvmerge v8.3.0 ( Over the Horizon ) 64bit
Writing library : libebml v1.3.1 + libmatroska v1.4.2 / Lavf55.12.0

Video
ID : 1
Format : AVC
Format/Info : Advanced Video Codec
Format profile : [email protected]
Format settings, CABAC : Yes
Format settings, ReFrames : 4 frames
Codec ID : V_MPEG4/ISO/AVC
Bit rate : 3 645 kb/s
Width : 1 920 pixels
Height : 1 040 pixels
Display aspect ratio : 1.85:1
Frame rate mode : Variable
Color space : YUV
Chroma subsampling : 4:2:0
Bit depth : 8 bits
Scan type : Progressive
Writing library : x264 core 142 r2479 dd79a61
Encoding settings : cabac=1 / ref=1 / deblock=1:0:0 / analyse=0x1:0x111 / me=hex / subme=2 / psy=1 / psy_rd=1.00:0.00 / mixed_ref=0 / me_range=16 / chroma_me=1 / trellis=0 / 8x8dct=0 / cqm=0 / deadzone=21,11 / fast_pskip=1 / chroma_qp_offset=0 / threads=6 / lookahead_threads=2 / sliced_threads=0 / nr=0 / decimate=1 / interlaced=0 / bluray_compat=0 / constrained_intra=0 / bframes=3 / b_pyramid=2 / b_adapt=1 / b_bias=0 / direct=1 / weightb=1 / open_gop=0 / weightp=1 / keyint=240 / keyint_min=24 / scenecut=40 / intra_refresh=0 / rc_lookahead=10 / rc=crf / mbtree=1 / crf=23.0 / qcomp=0.60 / qpmin=0 / qpmax=69 / qpstep=4 / vbv_maxrate=20000 / vbv_bufsize=25000 / crf_max=0.0 / nal_hrd=none / filler=0 / ip_ratio=1.40 / aq=1:1.00
Language : Thai
Default : Yes
Forced : Yes
Color range : Limited
Color primaries : BT.709
Transfer characteristics : BT.709
Matrix coefficients : BT.709
Statistics Tags Issue : mkvmerge v8.3.0 ( Over the Horizon ) 64bit 2017-11-06 08:46:02 / mkvmerge v8.3.0 ( Over the Horizon ) 64bit 2017-11-06 08:46:02 / UTC 2017-11-06T05:41:50Z
FromStats_BitRate : 3731389
FromStats_Duration : 01:45:50.404000000
FromStats_FrameCount : 152257
FromStats_StreamSize : 2961978629

Audio #1
ID : 2
Format : DTS
Format/Info : Digital Theater Systems
Mode : 16
Format settings, Endianness : Big
Codec ID : A_DTS
Duration : 1 h 45 min
Bit rate mode : Constant
Bit rate : 1 509 kb/s
Channel(s) : 6 channels
Channel positions : Front: L C R, Side: L R, LFE
Sampling rate : 48.0 kHz
Frame rate : 93.750 FPS (512 spf)
Bit depth : 16 bits
Compression mode : Lossy
Stream size : 1.12 GiB (26%)
Title : Surround
Language : English
Default : No
Forced : No
Statistics Tags Issue : mkvmerge v8.3.0 ( Over the Horizon ) 64bit 2017-11-06 08:46:02 / mkvmerge v8.3.0 ( Over the Horizon ) 64bit 2017-11-06 08:46:02 / UTC 2017-11-06T05:41:50Z
FromStats_BitRate : 1508999
FromStats_Duration : 01:45:50.379000000
FromStats_FrameCount : 595348
FromStats_StreamSize : 1197840176

Audio #2
ID : 3
Format : AC-3
Format/Info : Audio Coding 3
Mode extension : CM (complete main)
Format settings, Endianness : Big
Codec ID : A_AC3
Duration : 1 h 45 min
Bit rate mode : Constant
Bit rate : 640 kb/s
Channel(s) : 6 channels
Channel positions : Front: L C R, Side: L R, LFE
Sampling rate : 48.0 kHz
Frame rate : 31.250 FPS (1536 spf)
Compression mode : Lossy
Stream size : 484 MiB (11%)
Title : Surround
Language : Thai
Default : Yes
Forced : Yes
Statistics Tags Issue : mkvmerge v8.3.0 ( Over the Horizon ) 64bit 2017-11-06 08:46:02 / mkvmerge v8.3.0 ( Over the Horizon ) 64bit 2017-11-06 08:46:02 / UTC 2017-11-06T05:41:50Z
FromStats_BitRate : 640000
FromStats_Duration : 01:45:50.400000000
FromStats_FrameCount : 198450
FromStats_StreamSize : 508032000

Text #1
ID : 4
Format : PGS
Muxing mode : zlib
Codec ID : S_HDMV/PGS
Codec ID/Info : Picture based subtitle format used on BDs/HD-DVDs
Language : English
Default : No
Forced : No
Statistics Tags Issue : mkvmerge v8.3.0 ( Over the Horizon ) 64bit 2017-11-06 08:46:02 / mkvmerge v8.3.0 ( Over the Horizon ) 64bit 2017-11-06 08:46:02 / UTC 2017-11-06T05:41:50Z
FromStats_BitRate : 16210
FromStats_Duration : 01:37:05.069000000
FromStats_FrameCount : 2896
FromStats_StreamSize : 11803123

Text #2
ID : 5
Format : PGS
Muxing mode : zlib
Codec ID : S_HDMV/PGS
Codec ID/Info : Picture based subtitle format used on BDs/HD-DVDs
Language : Thai
Default : Yes
Forced : Yes
Statistics Tags Issue : mkvmerge v8.3.0 ( Over the Horizon ) 64bit 2017-11-06 08:46:02 / mkvmerge v8.3.0 ( Over the Horizon ) 64bit 2017-11-06 08:46:02 / UTC 2017-11-06T05:41:50Z
FromStats_BitRate : 13283
FromStats_Duration : 01:45:07.843000000
FromStats_FrameCount : 2970
FromStats_StreamSize : 10473881





Download: cornfile
1
http://cornfile.com/rb48g6exygrc
2
http://cornfile.com/o43srd25z31x
3
http://cornfile.com/cs8qxmiut5dd

Download: mekafile
1
http://www.mekafile.com/dl.php?f=2Z1960bxnNYZ
2
http://www.mekafile.com/dl.php?f=Fya1babxnM61
3
http://www.mekafile.com/dl.php?f=I5f293bxnNEF