+ Reply to Thread
Results 1 to 1 of 1
  1. #1
    Administrators Duckload.us's Avatar
    Join Date
    Dec 2010
    Posts
    81,768
    Thanks
    9
    Thanked 87,315 Times in 41,639 Posts

    Angry สุดยอดคอนเสิร์ต! HANS ZIMMER - LIVE IN PRAGUE (2017) BDrip 1080P [English AC-3] เป็นคอนเสิร์ตเพลงประกอบภาพยนตร์ที่อลังการมากๆ ใครชอบฟังเพลง Soundtrack ลองดูแบบบรรเลงของจริง-Encode.H.264.1080p.

    cornfile.com


    Track List:
    1. Medley: Driving (Driving Miss Daisy) / Discombobulate (Sherlock Holmes) / Zoosters Breakout (Madagascar)
    2. Medley: Crimson Tide / 160 BPM (Angels And Demons)
    3. Gladiator Medley: The Wheat / The Battle / Elysium / Now We Are Free
    4. Chevaliers De Sangreal (The Da Vinci Code)
    5. The Lion King Medley: Circle Of Life (Prelude) / King Of Pride Rock (reprise)
    6. Pirates Of The Caribbean Medley: Captain Jack Sparrow / One Day / Up Is Down / He s A Pirate
    7. You re So Cool (True Romance)
    8. Rain Man: Main Theme
    9. What Are You Going To Do When You Are Not Saving The World (Man Of Steel)
    10. Journey To The Line (The Thin Red Line)
    11. The Electro Suite (themes from The Amazing Spider-Man 2)
    12. The Dark Knight Trilogy Medley: Why So Serious? / Like A Dog Chasing Cars / Why Do We Fall? / Introduce A Little Anarchy / The Fire Rises
    13. Aurora
    14. Interstellar Medley: Day One / Cornfield Chase / No Time For Caution / Stay
    15. Inception Medley: Half Remembered Dream / Dream Is Collapsing / Mombasa / Time


    General
    Complete name : HANS ZIMMER - LIVE IN PRAGUE (2017) BDrip 1080P.mkv
    Format : Matroska
    Format version : Version 2
    File size : 10.9 GiB
    Duration : 2 h 18 min
    Overall bit rate : 11.3 Mb/s
    Movie name : Hans Zimmer Live on Prague (2017)
    Encoded date : UTC 2017-11-10 09:52:51
    Writing application : mkvmerge v5.8.0 ( No Sleep / Pillow ) built on Sep 2 2012 15:37:04
    Writing library : libebml v1.2.3 + libmatroska v1.3.0

    Video
    ID : 1
    Format : AVC
    Format/Info : Advanced Video Codec
    Format profile : [email protected]
    Format settings, CABAC : Yes
    Format settings, RefFrames : 4 frames
    Codec ID : V_MPEG4/ISO/AVC
    Duration : 2 h 18 min
    Bit rate : 10 000 kb/s
    Width : 1 920 pixels
    Height : 1 080 pixels
    Display aspect ratio : 16:9
    Frame rate mode : Constant
    Frame rate : 24.000 FPS
    Color space : YUV
    Chroma subsampling : 4:2:0
    Bit depth : 8 bits
    Scan type : Progressive
    Bits/(Pixel*Frame) : 0.201
    Stream size : 9.46 GiB (87%)
    Title : BDRip by Ash61 (v2)
    Writing library : x264 core 146 r2538 121396c
    Encoding settings : cabac=1 / ref=4 / deblock=1:-3:-3 / analyse=0x3:0x113 / me=umh / subme=10 / psy=1 / psy_rd=1.00:0.00 / mixed_ref=1 / me_range=32 / chroma_me=1 / trellis=2 / 8x8dct=1 / cqm=0 / deadzone=21,11 / fast_pskip=0 / chroma_qp_offset=-2 / threads=12 / lookahead_threads=3 / sliced_threads=0 / nr=0 / decimate=0 / interlaced=0 / bluray_compat=0 / constrained_intra=0 / bframes=10 / b_pyramid=2 / b_adapt=2 / b_bias=0 / direct=3 / weightb=1 / open_gop=0 / weightp=2 / keyint=250 / keyint_min=24 / scenecut=40 / intra_refresh=0 / rc_lookahead=60 / rc=2pass / mbtree=0 / bitrate=10000 / ratetol=1.0 / qcomp=0.70 / qpmin=0 / qpmax=69 / qpstep=4 / cplxblur=20.0 / qblur=0.5 / vbv_maxrate=40000 / vbv_bufsize=30000 / nal_hrd=none / filler=0 / ip_ratio=1.40 / pb_ratio=1.30 / aq=1:0.70
    Language : English
    Default : Yes
    Forced : No

    Audio #1
    ID : 2
    Format : AC-3
    Format/Info : Audio Coding 3
    Format settings, Endianness : Big
    Codec ID : A_AC3
    Duration : 2 h 18 min
    Bit rate mode : Constant
    Bit rate : 640 kb/s
    Channel(s) : 6 channels
    Channel positions : Front: L C R, Side: L R, LFE
    Sampling rate : 48.0 kHz
    Frame rate : 31.250 FPS (1536 SPF)
    Bit depth : 16 bits
    Compression mode : Lossy
    Stream size : 634 MiB (6%)
    Language : Russian
    Service kind : Complete Main
    Default : Yes
    Forced : No

    Audio #2
    ID : 3
    Format : AC-3
    Format/Info : Audio Coding 3
    Format settings, Endianness : Big
    Codec ID : A_AC3
    Duration : 2 h 18 min
    Bit rate mode : Constant
    Bit rate : 640 kb/s
    Channel(s) : 6 channels
    Channel positions : Front: L C R, Side: L R, LFE
    Sampling rate : 48.0 kHz
    Frame rate : 31.250 FPS (1536 SPF)
    Bit depth : 16 bits
    Compression mode : Lossy
    Stream size : 634 MiB (6%)
    Title : Original
    Language : English
    Service kind : Complete Main
    Default : No
    Forced : No

    Text #1
    ID : 4
    Format : UTF-8
    Codec ID : S_TEXT/UTF8
    Codec ID/Info : UTF-8 Plain Text
    Language : Russian
    Default : Yes
    Forced : No

    Text #2
    ID : 5
    Format : UTF-8
    Codec ID : S_TEXT/UTF8
    Codec ID/Info : UTF-8 Plain Text
    Language : Russian
    Default : No
    Forced : No

    Text #3
    ID : 6
    Format : UTF-8
    Codec ID : S_TEXT/UTF8
    Codec ID/Info : UTF-8 Plain Text
    Title : Full
    Language : English
    Default : No
    Forced : No













    Download: cornfile
    http://cornfile.com/n0iv7sy830hx
    Download: mekafile
    meka อัพไม่ได้ครับ

  2. The Following 2 Users Say Thank You to Duckload.us For This Useful Post:

    mta28 (11-17-2017), zhad01 (11-14-2017)

+ Reply to Thread

Thread Information

Users Browsing this Thread

There are currently 1 users browsing this thread. (0 members and 1 guests)

     

Posting Permissions

  • You may not post new threads
  • You may not post replies
  • You may not post attachments
  • You may not edit your posts