+ Reply to Thread
Results 1 to 3 of 3
  1. #1
    Senior Member
    Join Date
    May 2015
    Posts
    1,653
    Thanks
    0
    Thanked 740 Times in 524 Posts

    Arrow [Full-HD] / [Mini-HD] Your Name (2016) : หลับตาฝันถึงชื่อเธอ !!! [เสียง:ไทย 5.1,ญี่ปุ่น DTS-HD - บรรยาย:ไทย,อังกฤษ] [เสียงไทย + ซับไทย From Master + ซับไทย PGS]

    cornfile.com









    Mini-HD SIZE: 5.51 GB


    [email protected]
    Format : Matroska
    Format version : Version 4 / Version 2
    File size : 5.51 GiB
    Duration : 1 h 46 min
    Overall bit rate : 7 396 kb/s
    Movie name : [email protected]
    Encoded date : UTC 2017-11-30 23:03:35
    Writing application : mkvmerge v18.0.0 ('Apricity') 64-bit
    Writing library : libebml v1.3.5 + libmatroska v1.4.8
    Cover : Yes
    Attachments : cover.jpg

    Video
    ID : 1
    Format : AVC
    Format/Info : Advanced Video Codec
    Format profile : [email protected]
    Format settings, CABAC : Yes
    Format settings, RefFrames : 4 frames
    Codec ID : V_MPEG4/ISO/AVC
    Duration : 1 h 46 min
    Bit rate : 5 400 kb/s
    Width : 1 920 pixels
    Height : 1 080 pixels
    Display aspect ratio : 16:9
    Frame rate mode : Constant
    Frame rate : 23.976 (24000/1001) FPS
    Color space : YUV
    Chroma subsampling : 4:2:0
    Bit depth : 8 bits
    Scan type : Progressive
    Bits/(Pixel*Frame) : 0.109
    Stream size : 4.02 GiB (73%)
    Title : @@ Present by enthdmovieclub @@
    Writing library : x264 core 152 r2851kMod ba24899
    Encoding settings : cabac=1 / ref=4 / deblock=1:0:0 / analyse=0x3:0x113 / me=umh / subme=11 / psy=0 / mixed_ref=1 / me_range=32 / chroma_me=1 / trellis=2 / 8x8dct=1 / cqm=0 / deadzone=21,11 / fast_pskip=0 / chroma_qp_offset=0 / threads=12 / lookahead_threads=2 / sliced_threads=0 / nr=0 / decimate=0 / interlaced=0 / bluray_compat=0 / constrained_intra=0 / bframes=8 / b_pyramid=2 / b_adapt=2 / b_bias=0 / direct=3 / weightb=1 / open_gop=0 / weightp=2 / keyint=240 / keyint_min=23 / scenecut=40 / intra_refresh=0 / rc_lookahead=40 / rc=2pass / mbtree=0 / bitrate=5400 / ratetol=1.0 / qcomp=0.60 / qpmin=0 / qpmax=69 / qpstep=4 / cplxblur=20.0 / qblur=0.5 / vbv_maxrate=50000 / vbv_bufsize=62500 / nal_hrd=none / filler=0 / ip_ratio=1.40 / pb_ratio=1.30 / aq=3:1.00
    Language : English
    Default : Yes
    Forced : No

    Audio #1
    ID : 2
    Format : AC-3
    Format/Info : Audio Coding 3
    Format settings, Endianness : Big
    Codec ID : A_AC3
    Duration : 1 h 46 min
    Bit rate mode : Constant
    Bit rate : 448 kb/s
    Channel(s) : 6 channels
    Channel positions : Front: L C R, Side: L R, LFE
    Sampling rate : 48.0 kHz
    Frame rate : 31.250 FPS (1536 SPF)
    Bit depth : 16 bits
    Compression mode : Lossy
    Stream size : 341 MiB (6%)
    Title : Thai AC 3 5.1 MASTER
    Language : Thai
    Service kind : Complete Main
    Default : Yes
    Forced : Yes

    Audio #2
    ID : 3
    Format : DTS
    Format/Info : Digital Theater Systems
    Mode : 16
    Format settings, Endianness : Big
    Codec ID : A_DTS
    Duration : 1 h 46 min
    Bit rate mode : Constant
    Bit rate : 1 509 kb/s
    Channel(s) : 6 channels
    Channel positions : Front: L C R, Side: L R, LFE
    Sampling rate : 48.0 kHz
    Frame rate : 93.750 FPS (512 SPF)
    Bit depth : 24 bits
    Compression mode : Lossy
    Stream size : 1.12 GiB (20%)
    Title : Jpn DTS 5.1
    Language : Japanese
    Default : No
    Forced : No

    Text #1
    ID : 4
    Format : PGS
    Muxing mode : zlib
    Codec ID : S_HDMV/PGS
    Codec ID/Info : Picture based subtitle format used on BDs/HD-DVDs
    Duration : 1 h 45 min
    Bit rate : 30.7 kb/s
    Count of elements : 2456
    Stream size : 23.2 MiB (0%)
    Title : Eng
    Language : English
    Default : No
    Forced : No

    Text #2
    ID : 5
    Format : PGS
    Muxing mode : zlib
    Codec ID : S_HDMV/PGS
    Codec ID/Info : Picture based subtitle format used on BDs/HD-DVDs
    Duration : 1 h 39 min
    Bit rate : 34.2 kb/s
    Count of elements : 2514
    Stream size : 24.5 MiB (0%)
    Title : Thai PGS MASTER
    Language : Thai
    Default : Yes
    Forced : Yes

    Text #3
    ID : 6
    Format : VobSub
    Muxing mode : zlib
    Codec ID : S_VOBSUB
    Codec ID/Info : Picture based subtitle format used on DVDs
    Duration : 1 h 39 min
    Bit rate : 8 467 b/s
    Count of elements : 1257
    Stream size : 6.05 MiB (0%)
    Title : Thai 1080p
    Language : Thai
    Default : No
    Forced : No

    Text #4
    ID : 7
    Format : VobSub
    Muxing mode : zlib
    Codec ID : S_VOBSUB
    Codec ID/Info : Picture based subtitle format used on DVDs
    Duration : 1 h 39 min
    Bit rate : 3 077 b/s
    Count of elements : 1257
    Stream size : 2.20 MiB (0%)
    Title : Thai 480p
    Language : Thai
    Default : No
    Forced : No


    MODIFIED BY @ENTHD








    Full-HD SIZE: 8.52 GB





    [email protected]
    Format : Matroska
    Format version : Version 4 / Version 2
    File size : 8.52 GiB
    Duration : 1 h 46 min
    Overall bit rate : 11.4 Mb/s
    Movie name : [email protected]
    Encoded date : UTC 2017-11-30 22:52:40
    Writing application : mkvmerge v18.0.0 ('Apricity') 64-bit
    Writing library : libebml v1.3.5 + libmatroska v1.4.8
    Cover : Yes
    Attachments : cover.jpg

    Video
    ID : 1
    Format : AVC
    Format/Info : Advanced Video Codec
    Format profile : [email protected]
    Format settings, CABAC : Yes
    Format settings, RefFrames : 1 frame
    Format settings, GOP : M=1, N=25
    Codec ID : V_MPEG4/ISO/AVC
    Duration : 1 h 46 min
    Bit rate mode : Constant
    Nominal bit rate : 9 099 kb/s
    Width : 1 920 pixels
    Height : 1 080 pixels
    Display aspect ratio : 16:9
    Frame rate mode : Constant
    Frame rate : 23.976 (24000/1001) FPS
    Color space : YUV
    Chroma subsampling : 4:2:0
    Bit depth : 8 bits
    Scan type : Progressive
    Bits/(Pixel*Frame) : 0.148
    Stream size : 5.48 GiB (64%)
    Title : @@ Present by enthdmovieclub @@
    Language : Japanese
    Default : Yes
    Forced : No

    Audio #1
    ID : 2
    Format : AC-3
    Format/Info : Audio Coding 3
    Format settings, Endianness : Big
    Codec ID : A_AC3
    Duration : 1 h 46 min
    Bit rate mode : Constant
    Bit rate : 448 kb/s
    Channel(s) : 6 channels
    Channel positions : Front: L C R, Side: L R, LFE
    Sampling rate : 48.0 kHz
    Frame rate : 31.250 FPS (1536 SPF)
    Bit depth : 16 bits
    Compression mode : Lossy
    Stream size : 341 MiB (4%)
    Title : Thai AC 3 5.1 MASTER
    Language : Thai
    Service kind : Complete Main
    Default : Yes
    Forced : Yes

    Audio #2
    ID : 3
    Format : DTS
    Format/Info : Digital Theater Systems
    Format profile : MA / Core
    Mode : 16
    Format settings, Endianness : Big
    Codec ID : A_DTS
    Duration : 1 h 46 min
    Bit rate mode : Variable / Constant
    Bit rate : 3 595 kb/s / 1 509 kb/s
    Channel(s) : 6 channels
    Channel positions : Front: L C R, Side: L R, LFE
    Sampling rate : 48.0 kHz
    Frame rate : 93.750 FPS (512 SPF)
    Bit depth : 24 bits
    Compression mode : Lossless / Lossy
    Stream size : 2.68 GiB (31%)
    Title : Jpn DTS-HD MA. 5.1
    Language : Japanese
    Default : No
    Forced : No

    Text #1
    ID : 4
    Format : PGS
    Muxing mode : zlib
    Codec ID : S_HDMV/PGS
    Codec ID/Info : Picture based subtitle format used on BDs/HD-DVDs
    Duration : 1 h 45 min
    Bit rate : 30.7 kb/s
    Count of elements : 2456
    Stream size : 23.2 MiB (0%)
    Title : Eng
    Language : English
    Default : No
    Forced : No

    Text #2
    ID : 5
    Format : PGS
    Muxing mode : zlib
    Codec ID : S_HDMV/PGS
    Codec ID/Info : Picture based subtitle format used on BDs/HD-DVDs
    Duration : 1 h 39 min
    Bit rate : 34.2 kb/s
    Count of elements : 2514
    Stream size : 24.5 MiB (0%)
    Title : Thai PGS MASTER
    Language : Thai
    Default : Yes
    Forced : Yes

    Text #3
    ID : 6
    Format : VobSub
    Muxing mode : zlib
    Codec ID : S_VOBSUB
    Codec ID/Info : Picture based subtitle format used on DVDs
    Duration : 1 h 39 min
    Bit rate : 8 467 b/s
    Count of elements : 1257
    Stream size : 6.05 MiB (0%)
    Title : Thai 1080p
    Language : Thai
    Default : No
    Forced : No

    Text #4
    ID : 7
    Format : VobSub
    Muxing mode : zlib
    Codec ID : S_VOBSUB
    Codec ID/Info : Picture based subtitle format used on DVDs
    Duration : 1 h 39 min
    Bit rate : 3 077 b/s
    Count of elements : 1257
    Stream size : 2.20 MiB (0%)
    Title : Thai 480p
    Language : Thai
    Default : No
    Forced : No

    MODIFIED BY @ENTHD







    สายสัมพันธ์สุดเหลือเชื่อของเด็กหนุ่มและเด็กสาวสุดแ ตกต่าง ระหว่าง ทาคิ เด็กหนุ่มนักเรียน ม.ปลาย ที่เติบโตในเมืองโตเกียว กับ มิทซึวะ เด็กสาว ม.ปลาย ที่ใช้ชีวิตในหุบเขาแถบชนบท ซึ่งแม้ทั้งสองดูจะมีชีวิตที่แตกต่างกัน แต่สิ่งหนึ่งที่ทั้งสองเหมือนกัน คือต่างแสวงหาการใช้ชีวิตในแบบของอีกคน ทั้งที่ทั้งสองไม่มีความเกี่ยวข้องใดๆ กันเลย จนกระทั่งคืนหนึ่ง ในวันเกิดปรากฏดาวตกในรอบพันปี ทาคิและมิทซึวะต่างฝันว่าได้ใช้ชีวิตในแบบของอีกคน จุดเริ่มต้นของสายสัมพันธ์ที่ไม่เห็นแต่สัมผัสได้จึง เริ่มขึ้น แม้พวกเขาไม่รู้ว่าคืออะไรหรือเป็นการบอกใบ้ใดก็ตาม…





    Mini-HD SIZE: 5.51 GB

    [email protected]

    Full-HD SIZE: 8.52 GB

    [email protected]

    >>สมัคร VIP cornfile <<

    >> วิธีสมัคร VIP cornfile <<




    Mini-HD SIZE: 5.51 GB

    1 PART

    DOWNLOAD


    PASS:https://enthdmovieclub.blogspot.com/

    วิธีแก้ปัญหา Google ไดรฟ์ - เกินโควต้า





    Mini-HD SIZE: 5.51 GB


    1 PART

    DOWNLOAD


    Full-HD SIZE: 8.52 GB


    1 PART

    DOWNLOAD


    PASS:https://enthdmovieclub.blogspot.com/




    Mini-HD SIZE: 5.51 GB


    PART1

    PART2

    PART3

    PART4

    PART5


    PASS:https://enthdmovieclub.blogspot.com/


    Full-HD SIZE: 8.52 GB


    PART1

    PART2

    PART3

    PART4

    PART5


    PASS:https://enthdmovieclub.blogspot.com/


    ติดตามอัพเดตเรื่องอื่นๆได้ที่

    https://enthdmovieclub.blogspot.com/
    Last edited by ENT-HD; 12-03-2017 at 06:04 PM.

  2. The Following User Says Thank You to ENT-HD For This Useful Post:

    gaszolineskywalker (12-02-2017)

  3. #2
    Senior Member
    Join Date
    May 2015
    Posts
    1,653
    Thanks
    0
    Thanked 740 Times in 524 Posts
    เพิ่ม one2up full-hd

  4. #3
    Junior Member
    Join Date
    Dec 2017
    Posts
    5
    Thanks
    0
    Thanked 0 Times in 0 Posts
    แอดครับ เรื่องนี้มี 4k หรือป่าวครับ ขอบคุณครับ

+ Reply to Thread

Thread Information

Users Browsing this Thread

There are currently 1 users browsing this thread. (0 members and 1 guests)

     

Posting Permissions

  • You may not post new threads
  • You may not post replies
  • You may not post attachments
  • You may not edit your posts