+ Reply to Thread
Results 1 to 3 of 3
  1. #1
    Administrators Duckload.us's Avatar
    Join Date
    Dec 2010
    Posts
    83,049
    Thanks
    9
    Thanked 88,021 Times in 42,062 Posts

    Question []-[!!] [BluRay] [Ҿ] Dunkirk (2017) : ѹ [1080p] [* BluRay.H264.AAC.ThaiRong5.1 [email protected] *] [ҡç 5.1 + §ѧ 5.1] -Blu-ray.H.264.1080p. [Modified]-[ҡç]

    cornfile.com





    Ҿ¹ҧҡ˵ءóԧ ½ͧ͢ӡѺ١駤ѧҡҹѡ ó
    Ф˹ѧšҧ Ź

    ;¾˭ͧêѧзҾѹ ùѺʹ...!
    [email protected]
    ҡç 5.1 + §ѧ 5.1



    wrote:

    Dunkirk Ҿ¹ͧ Dunkirk ԴǴ©ҡѧҾѹԵùѺʹ ١ͧѧѵͺ ǡҵԴѺ躹Ҵ ͧѧͷͧеͧ༪ԭ˹ҡѺʶҹó ѵһЪԴ

    ѡʴʹѧҾ¹ͧ Dunkirk (The Revenant, Mad Max: Fury Road, Inception), Ź (Bridge of Spies, Wolf Hall), ह๸ ҹ (My Week with Marilyn, Hamlet, Henry V) Ы¹ (Inception, Ҿ¹Ҥ The Dark Knight) ֧ѡʴ˹ ¹ Ƿδ ѡʴ ͹Թ , , Ւ, ഹ, ᡹ Թ-



    wrote:

    Format : Matroska
    File size : 2.36 GiB
    Duration : 1 h 46 min
    Overall bit rate : 3 173 kb/s

    Movie name : Dunkirk.2017.1080p.BluRay.H264.AAC.ThaiRong5.1_CpT @CtHts

    Video
    ID : 1
    Format : AVC
    Format/Info : Advanced Video Codec
    Format profile : [email protected]
    Format settings : CABAC / 4 Ref Frames
    Format settings, CABAC : Yes
    Format settings, ReFrames : 4 frames
    Codec ID : V_MPEG4/ISO/AVC
    Duration : 1 h 46 min
    Bit rate : 2 500 kb/s
    Width : 1 920 pixels
    Height : 1 080 pixels
    Display aspect ratio : 16:9
    Frame rate mode : Constant
    Frame rate : 23.976 (23976/1000) FPS
    Color space : YUV
    Chroma subsampling : 4:2:0
    Bit depth : 8 bits
    Scan type : Progressive
    Bits/(Pixel*Frame) : 0.050
    Stream size : 1.86 GiB (79%)
    Title : Dunkirk.2017.1080p.BluRay.H264.AAC.ThaiRong5.1_CpT @CtHts
    Writing library : x264 core 152 r2851M ba24899
    Encoding settings : cabac=1 / ref=4 / deblock=1:-1:-1 / analyse=0x3:0x113 / me=umh / subme=9 / psy=1 / psy_rd=1.00:0.15 / mixed_ref=1 / me_range=24 / chroma_me=1 / trellis=2 / 8x8dct=1 / cqm=0 / deadzone=21,11 / fast_pskip=1 / chroma_qp_offset=-3 / threads=32 / lookahead_threads=4 / sliced_threads=0 / nr=0 / decimate=1 / interlaced=0 / bluray_compat=0 / constrained_intra=0 / bframes=3 / b_pyramid=2 / b_adapt=2 / b_bias=0 / direct=3 / weightb=1 / open_gop=0 / weightp=2 / keyint=250 / keyint_min=25 / scenecut=40 / intra_refresh=0 / rc_lookahead=50 / rc=2pass / mbtree=1 / bitrate=2500 / ratetol=1.0 / qcomp=0.60 / qpmin=0 / qpmax=69 / qpstep=4 / cplxblur=20.0 / qblur=0.5 / vbv_maxrate=31250 / vbv_bufsize=31250 / nal_hrd=none / filler=0 / ip_ratio=1.40 / aq=3:1.00
    Language : English
    Default : Yes
    Forced : No

    Audio #1
    ID : 2
    Format : AC-3
    Format/Info : Audio Coding 3
    Codec ID : A_AC3
    Duration : 1 h 46 min
    Bit rate mode : Constant
    Bit rate : 448 kb/s
    Channel(s) : 6 channels
    Channel positions : Front: L C R, Side: L R, LFE
    Sampling rate : 48.0 kHz
    Frame rate : 31.250 FPS (1536 SPF)
    Bit depth : 16 bits
    Compression mode : Lossy
    Delay relative to video : -43 ms
    Stream size : 342 MiB (14%)
    Title : AC-3 ThaiRong 5.1 By ~Mr.Captain~
    Language : Thai
    Service kind : Complete Main
    Default : Yes
    Forced : No

    Audio #2
    ID : 3
    Format : AAC
    Format/Info : Advanced Audio Codec
    Format profile : LC
    Codec ID : A_AAC-2
    Duration : 1 h 46 min
    Bit rate : 224 kb/s
    Channel(s) : 6 channels
    Channel positions : Front: L C R, Side: L R, LFE
    Sampling rate : 48.0 kHz
    Frame rate : 46.875 FPS (1024 SPF)
    Compression mode : Lossy
    Delay relative to video : -43 ms
    Stream size : 171 MiB (7%)
    Title : AAC English 5.1
    Language : English
    Default : No
    Forced : No



    wrote:











    Download: cornfile
    http://cornfile.com/4tn7hswiq3e5
    Download: mekafile
    http://www.mekafile.com/dl.php?f=sx3789byxA8a

  2. The Following 5 Users Say Thank You to Duckload.us For This Useful Post:

    masterjerome (12-06-2017), noi54 (12-07-2017), prasert.pp (12-06-2017), PUNKROCK (12-06-2017), smakha (12-07-2017)

  3. #2
    Senior Member
    Join Date
    Oct 2013
    Posts
    621
    Thanks
    0
    Thanked 0 Times in 0 Posts
    ͺسѺ

  4. #3
    Senior Member PUNKROCK's Avatar
    Join Date
    Jul 2011
    Posts
    1,088
    Thanks
    917
    Thanked 0 Times in 0 Posts
    . ͺФسҧ٧Ѻ
    PUNKROCK NEVERDIE

Thread Information

Users Browsing this Thread

There are currently 1 users browsing this thread. (0 members and 1 guests)

     

Posting Permissions

  • You may not post new threads
  • You may not post replies
  • You may not post attachments
  • You may not edit your posts