Ice Age (2002) / ไอซ์ เอจ 1 - เจาะยุคน้ำแข็งมหัศจรรย์
เมื่อสองหมื่นปีก่อน โลกใบนี้ยังประหลาดมหัศจรรย์ และเป็นยุคก่อนจะจารึกประวัติศาสตร์ที่เต็มไปด้วยอัน ตราย ทั้งยังเป็นช่วงก่อนยุคน้ำแข็ง เสียด้วยซ้ำ สัตว์โลกน้อยใหญ่จึงต้องหนีเอาตัวให้รอดจากพายุหิมะ แม้แต่สัตว์ที่เกียจคร้านเป็นที่สุด ต่างก็อพยพย้ายถิ่นลงใต้กันทั้งนั้น ส่วนพวกผ่าเหล่าก็มี แมนเฟร็ด ช้างแมมมอธขนยาวหนุ่มใหญ่ใจพเนจรที่ทำทุกอย่างตามใจป รารถนา, กับ ซิด ตัวซลอธแสนเฉื่อยชาที่วันหนึ่ง ๆ ไม่ทำอะไรสักอย่าง ก็ตามใจปรารถนาอีกนั่นแหละเมื่อ ซิด รับ แมนเฟร็ด มาเป็นผู้พิทักษ์ของเขา เจ้าช้างแมมมอธก็พยายามทุกวิถีทางที่จะสลัดภาระหนักอ กไปให้พ้น แต่นั่นเป็นเพียงจุดเริ่มต้นของเรื่องน่าเวียนหัวเท่ านั้น
General
Unique ID : 182195578505927243459581253045555330045 (0x8911978FCC9A23D8B39A2F02521C7BFD)
Complete name : [Mini HD] Ice Age (2002).mkv
Format : Matroska
Format version : Version 4 / Version 2
File size : 3.09 GiB
Duration : 1 h 21 min
Overall bit rate : 5 454 kb/s
Encoded date : UTC 2017-03-11 05:53:17 / UTC 2017-03-11T02:18:31Z
Writing application : mkvmerge v8.3.0 ( Over the Horizon ) 64bit
Writing library : libebml v1.3.1 + libmatroska v1.4.2 / Lavf55.12.0

Video
ID : 1
Format : AVC
Format/Info : Advanced Video Codec
Format profile : [email protected]
Format settings, CABAC : Yes
Format settings, ReFrames : 4 frames
Codec ID : V_MPEG4/ISO/AVC
Duration : 1 h 21 min
Bit rate : 3 388 kb/s
Width : 1 920 pixels
Height : 1 040 pixels
Display aspect ratio : 1.85:1
Frame rate mode : Constant
Frame rate : 23.976 (24000/1001) FPS
Color space : YUV
Chroma subsampling : 4:2:0
Bit depth : 8 bits
Scan type : Progressive
Bits/(Pixel*Frame) : 0.071
Stream size : 1.92 GiB (62%)
Writing library : x264 core 142 r2479 dd79a61
Encoding settings : cabac=1 / ref=1 / deblock=1:0:0 / analyse=0x1:0x111 / me=hex / subme=2 / psy=1 / psy_rd=1.00:0.00 / mixed_ref=0 / me_range=16 / chroma_me=1 / trellis=0 / 8x8dct=0 / cqm=0 / deadzone=21,11 / fast_pskip=1 / chroma_qp_offset=0 / threads=12 / lookahead_threads=4 / sliced_threads=0 / nr=0 / decimate=1 / interlaced=0 / bluray_compat=0 / constrained_intra=0 / bframes=3 / b_pyramid=2 / b_adapt=1 / b_bias=0 / direct=1 / weightb=1 / open_gop=0 / weightp=1 / keyint=240 / keyint_min=24 / scenecut=40 / intra_refresh=0 / rc_lookahead=10 / rc=crf / mbtree=1 / crf=20.0 / qcomp=0.60 / qpmin=0 / qpmax=69 / qpstep=4 / vbv_maxrate=20000 / vbv_bufsize=25000 / crf_max=0.0 / nal_hrd=none / filler=0 / ip_ratio=1.40 / aq=1:1.00
Language : Thai
Default : Yes
Forced : Yes
Color range : Limited
Color primaries : BT.709
Transfer characteristics : BT.709
Matrix coefficients : BT.709
Statistics Tags Issue : mkvmerge v8.3.0 ( Over the Horizon ) 64bit 2017-03-11 05:53:17 / mkvmerge v8.3.0 ( Over the Horizon ) 64bit 2017-03-11 05:53:17 / UTC 2017-03-11T02:18:31Z
FromStats_BitRate : 3474289
FromStats_Duration : 01:21:09.925000000
FromStats_FrameCount : 116761
FromStats_StreamSize : 2114940954

Audio #1
ID : 2
Format : DTS
Format/Info : Digital Theater Systems
Mode : 16
Format settings, Endianness : Big
Codec ID : A_DTS
Duration : 1 h 21 min
Bit rate mode : Constant
Bit rate : 1 509 kb/s
Channel(s) : 6 channels
Channel positions : Front: L C R, Side: L R, LFE
Sampling rate : 48.0 kHz
Frame rate : 93.750 FPS (512 spf)
Bit depth : 24 bits
Compression mode : Lossy
Stream size : 876 MiB (28%)
Title : Surround
Language : English
Default : No
Forced : No
Statistics Tags Issue : mkvmerge v8.3.0 ( Over the Horizon ) 64bit 2017-03-11 05:53:17 / mkvmerge v8.3.0 ( Over the Horizon ) 64bit 2017-03-11 05:53:17 / UTC 2017-03-11T02:18:31Z
FromStats_BitRate : 1508999
FromStats_Duration : 01:21:09.899000000
FromStats_FrameCount : 456553
FromStats_StreamSize : 918584636

Audio #2
ID : 3
Format : AC-3
Format/Info : Audio Coding 3
Mode extension : CM (complete main)
Format settings, Endianness : Big
Codec ID : A_AC3
Duration : 1 h 21 min
Bit rate mode : Constant
Bit rate : 448 kb/s
Channel(s) : 6 channels
Channel positions : Front: L C R, Side: L R, LFE
Sampling rate : 48.0 kHz
Frame rate : 31.250 FPS (1536 spf)
Compression mode : Lossy
Stream size : 260 MiB (8%)
Title : Surround
Language : Thai
Default : Yes
Forced : Yes
Statistics Tags Issue : mkvmerge v8.3.0 ( Over the Horizon ) 64bit 2017-03-11 05:53:17 / mkvmerge v8.3.0 ( Over the Horizon ) 64bit 2017-03-11 05:53:17 / UTC 2017-03-11T02:18:31Z
FromStats_BitRate : 448000
FromStats_Duration : 01:21:09.920000000
FromStats_FrameCount : 152185
FromStats_StreamSize : 272715520

Text #1
ID : 4
Format : PGS
Muxing mode : zlib
Codec ID : S_HDMV/PGS
Codec ID/Info : Picture based subtitle format used on BDs/HD-DVDs
Language : Thai
Default : Yes
Forced : Yes
Statistics Tags Issue : mkvmerge v8.3.0 ( Over the Horizon ) 64bit 2017-03-11 05:53:17 / mkvmerge v8.3.0 ( Over the Horizon ) 64bit 2017-03-11 05:53:17 / UTC 2017-03-11T02:18:31Z
FromStats_BitRate : 5499
FromStats_Duration : 01:17:08.750000000
FromStats_FrameCount : 1450
FromStats_StreamSize : 3181910

Text #2
ID : 5
Format : PGS
Muxing mode : zlib
Codec ID : S_HDMV/PGS
Codec ID/Info : Picture based subtitle format used on BDs/HD-DVDs
Language : English
Default : No
Forced : No
Statistics Tags Issue : mkvmerge v8.3.0 ( Over the Horizon ) 64bit 2017-03-11 05:53:17 / mkvmerge v8.3.0 ( Over the Horizon ) 64bit 2017-03-11 05:53:17 / UTC 2017-03-11T02:18:31Z
FromStats_BitRate : 16200
FromStats_Duration : 01:13:40.462000000
FromStats_FrameCount : 1132
FromStats_StreamSize : 8951487

2...
Ice Age 2: The Meltdown (2006) / ไอซ์ เอจ 2 - เจาะยุคน้ำแข็งมหัศจรรย์
สามสหายยังคงร่วมหัวจมท้ายอยู่ด้วยกัน และสนุกสนานไปกับโลกที่กำลังละลาย แมนนี่ ซิด และดิเอโก้ ต่างก็เรียนรู้อย่างรวดเร็วว่า อุณหภูมิที่อุ่นขึ้น ส่งผลเสียใหญ่หลวง คือเขื่อนน้ำแข็งขั้วโลกขนาดมหึมา ที่กักเก็บน้ำเค็มทั้งมหาสมุทรไว้ กำลังจะพังทลาย แล้วทั้งหุบเขาก็จะถูกน้ำท่วมในพริบตา ทางรอดเดียวที่มองเห็นก็ดันอยู่สุดสายปลายหุบเขาฝั่ง กระโน้น ฮีโร่ทั้งสามตัวพร้อมด้วย แอลลี่ แครช และ.เอ็ดดี้จึงเดินทางดั่งครอบครัวเดียวกัน
General
Unique ID : 190668498591346797634718989254949102805 (0x8F716AC6559C56A29F5A4A4D5A5864D5)
Complete name : [Mini HD] Ice Age 2 The Meltdown (2006).mkv
Format : Matroska
Format version : Version 4 / Version 2
File size : 3.88 GiB
Duration : 1 h 30 min
Overall bit rate : 6 134 kb/s
Encoded date : UTC 2017-03-11 05:58:47 / UTC 2017-03-11T02:53:13Z
Writing application : mkvmerge v8.3.0 ( Over the Horizon ) 64bit
Writing library : libebml v1.3.1 + libmatroska v1.4.2 / Lavf55.12.0

Video
ID : 1
Format : AVC
Format/Info : Advanced Video Codec
Format profile : [email protected]
Format settings, CABAC : Yes
Format settings, ReFrames : 4 frames
Codec ID : V_MPEG4/ISO/AVC
Duration : 1 h 30 min
Bit rate : 4 055 kb/s
Width : 1 920 pixels
Height : 1 036 pixels
Display aspect ratio : 1.85:1
Frame rate mode : Constant
Frame rate : 23.976 (24000/1001) FPS
Color space : YUV
Chroma subsampling : 4:2:0
Bit depth : 8 bits
Scan type : Progressive
Bits/(Pixel*Frame) : 0.085
Stream size : 2.57 GiB (66%)
Writing library : x264 core 142 r2479 dd79a61
Encoding settings : cabac=1 / ref=1 / deblock=1:0:0 / analyse=0x1:0x111 / me=hex / subme=2 / psy=1 / psy_rd=1.00:0.00 / mixed_ref=0 / me_range=16 / chroma_me=1 / trellis=0 / 8x8dct=0 / cqm=0 / deadzone=21,11 / fast_pskip=1 / chroma_qp_offset=0 / threads=12 / lookahead_threads=4 / sliced_threads=0 / nr=0 / decimate=1 / interlaced=0 / bluray_compat=0 / constrained_intra=0 / bframes=3 / b_pyramid=2 / b_adapt=1 / b_bias=0 / direct=1 / weightb=1 / open_gop=0 / weightp=1 / keyint=240 / keyint_min=24 / scenecut=40 / intra_refresh=0 / rc_lookahead=10 / rc=crf / mbtree=1 / crf=20.0 / qcomp=0.60 / qpmin=0 / qpmax=69 / qpstep=4 / vbv_maxrate=20000 / vbv_bufsize=25000 / crf_max=0.0 / nal_hrd=none / filler=0 / ip_ratio=1.40 / aq=1:1.00
Language : Thai
Default : Yes
Forced : Yes
Color range : Limited
Color primaries : BT.709
Transfer characteristics : BT.709
Matrix coefficients : BT.709
Statistics Tags Issue : mkvmerge v8.3.0 ( Over the Horizon ) 64bit 2017-03-11 05:58:47 / mkvmerge v8.3.0 ( Over the Horizon ) 64bit 2017-03-11 05:58:47 / UTC 2017-03-11T02:53:13Z
FromStats_BitRate : 4153394
FromStats_Duration : 01:30:35.990000000
FromStats_FrameCount : 130333
FromStats_StreamSize : 2822226190

Audio #1
ID : 2
Format : DTS
Format/Info : Digital Theater Systems
Mode : 16
Format settings, Endianness : Big
Codec ID : A_DTS
Duration : 1 h 30 min
Bit rate mode : Constant
Bit rate : 1 509 kb/s
Channel(s) : 6 channels
Channel positions : Front: L C R, Side: L R, LFE
Sampling rate : 48.0 kHz
Frame rate : 93.750 FPS (512 spf)
Bit depth : 24 bits
Compression mode : Lossy
Stream size : 978 MiB (25%)
Title : Surround
Language : English
Default : No
Forced : No
Statistics Tags Issue : mkvmerge v8.3.0 ( Over the Horizon ) 64bit 2017-03-11 05:58:47 / mkvmerge v8.3.0 ( Over the Horizon ) 64bit 2017-03-11 05:58:47 / UTC 2017-03-11T02:53:13Z
FromStats_BitRate : 1508999
FromStats_Duration : 01:30:35.958000000
FromStats_FrameCount : 509621
FromStats_StreamSize : 1025357452

Audio #2
ID : 3
Format : AC-3
Format/Info : Audio Coding 3
Mode extension : CM (complete main)
Format settings, Endianness : Big
Codec ID : A_AC3
Duration : 1 h 30 min
Bit rate mode : Constant
Bit rate : 448 kb/s
Channel(s) : 6 channels
Channel positions : Front: L C R, Side: L R, LFE
Sampling rate : 48.0 kHz
Frame rate : 31.250 FPS (1536 spf)
Compression mode : Lossy
Stream size : 290 MiB (7%)
Title : Surround
Language : Thai
Default : Yes
Forced : Yes
Statistics Tags Issue : mkvmerge v8.3.0 ( Over the Horizon ) 64bit 2017-03-11 05:58:47 / mkvmerge v8.3.0 ( Over the Horizon ) 64bit 2017-03-11 05:58:47 / UTC 2017-03-11T02:53:13Z
FromStats_BitRate : 448000
FromStats_Duration : 01:30:35.968000000
FromStats_FrameCount : 169874
FromStats_StreamSize : 304414208

Text #1
ID : 4
Format : PGS
Muxing mode : zlib
Codec ID : S_HDMV/PGS
Codec ID/Info : Picture based subtitle format used on BDs/HD-DVDs
Language : Thai
Default : No
Forced : No
Statistics Tags Issue : mkvmerge v8.3.0 ( Over the Horizon ) 64bit 2017-03-11 05:58:47 / mkvmerge v8.3.0 ( Over the Horizon ) 64bit 2017-03-11 05:58:47 / UTC 2017-03-11T02:53:13Z
FromStats_BitRate : 5374
FromStats_Duration : 01:27:22.612000000
FromStats_FrameCount : 1318
FromStats_StreamSize : 3521976

Text #2
ID : 5
Format : PGS
Muxing mode : zlib
Codec ID : S_HDMV/PGS
Codec ID/Info : Picture based subtitle format used on BDs/HD-DVDs
Language : English
Default : No
Forced : No
Statistics Tags Issue : mkvmerge v8.3.0 ( Over the Horizon ) 64bit 2017-03-11 05:58:47 / mkvmerge v8.3.0 ( Over the Horizon ) 64bit 2017-03-11 05:58:47 / UTC 2017-03-11T02:53:13Z
FromStats_BitRate : 16865
FromStats_Duration : 01:23:37.892000000
FromStats_FrameCount : 1418
FromStats_StreamSize : 10578352

3...
Ice Age 3: Dawn Of The Dinosaurs (2009) / ไอซ์ เอจ เจาะยุคน้ำแข็งมหัศจรรย์ 3 - จ๊ะเอ๋ไดโนเสาร์
ในสุดยอดภาพยนตร์แอนิเมชั่นผจญภัยสำหรับผู้ชมทุกยุคท ุกสมัยไม่เกี่ยงวัย!ชีวิตของพลพรรคยุคน้ำแข็งกำลังจะ เปลี่ยนไป เริ่มจากเจ้ากระรอก สแคร็ต (คริส เวดจ์) ซึ่งยังคงไล่ล่าเม็ดถั่วที่ยังคงตามหลอกหลอนชนิดไม่ร ู้จักเหน็ดไม่รู้จักเหนื่อย ในขณะเดียวกันก็อาจจะตามล่าหารักแท้ไปพร้อมๆ กันด้วย เพราะเขาได้พบกับกระรอกเขี้ยวดาบสาวชื่อ สแคร็ตตี้ (คาเรน ดิชเชอร์)คู่รักแมมมอธ แมนนี (เรย์ โรมาโน) กับ เอลลี (ควีน ลาติฟาห์) กำลังเฝ้าตั้งตารอคอยการถือกำเนิดของลูกแมมมอธตัวน้อ ยของทั้งคู่ ด้วยความตื่นเต้นกระวนกระวาย ส่วนเสือเขี้ยวดาบ ดิเอโก (เดนิส เลียรี) เริ่มหวั่นใจว่าจะเสียชาติเกิด เพราะนับวันที่ใช้ชีวิตอยู่กับผองเพื่อน ก็ยิ่งทำให้เขาอ่อนโยนขึ้นทุกทีตัวสลอธสันหลังยาว ซิด (จอห์น เลกวิซาโม) ก็อยู่ดีไม่ว่าดี พยายามจะสร้างครอบครัวขึ้นมาบ้าง ด้วยการไปอุ้มไข่ไดโนเสาร์มาฟูมฟัก จนหลงไปอยู่ในโลกใต้ดินสุดลึกลับ เพื่อนๆ จึงต้องยกก๊วนกันเข้ามาปฏิบัติภารกิจช่วยชีวิต ซิด ผู้อับโชค ในดินแดนที่เต็มไปด้วยไดโนเสาร์นอกจากไดโนเสาร์แล้ว ดินแดนแห่งนี้ยังมีพืชกินคน ตัววีเซลตาเดียวที่ชื่อ บัก (ไซมอน เพกก์) และเขตอันตรายที่ได้ยินแค่ชื่อก็ขนพองสยองเกล้าอย่าง หุบเหวแห่งความตาย และจานแห่งความปวดร้าว ขนาดแมมมอธ แมนนี ที่ได้ชื่อว่าเป็นพี่เบิ้มแห่งยุคน้ำแข็ง ยังรู้สึกกระจิ๋วหลิวในโลกมหัศจรรย์มหึมาแห่งนี้
General
Unique ID : 234649600668985683979829656084659901330 (0xB087DE864BB6E91A890EC30025311392)
Complete name : [Mini HD] Ice Age 3 Dawn Of The Dinosaurs (2009).mkv
Format : Matroska
Format version : Version 4 / Version 2
File size : 4.50 GiB
Duration : 1 h 34 min
Overall bit rate : 6 855 kb/s
Encoded date : UTC 2017-03-11 07:15:50 / UTC 2017-03-11T03:53:57Z
Writing application : mkvmerge v8.3.0 ( Over the Horizon ) 64bit
Writing library : libebml v1.3.1 + libmatroska v1.4.2 / Lavf55.12.0

Video
ID : 1
Format : AVC
Format/Info : Advanced Video Codec
Format profile : [email protected]
Format settings, CABAC : Yes
Format settings, ReFrames : 4 frames
Codec ID : V_MPEG4/ISO/AVC
Duration : 1 h 34 min
Bit rate : 4 761 kb/s
Width : 1 920 pixels
Height : 1 036 pixels
Display aspect ratio : 1.85:1
Frame rate mode : Constant
Frame rate : 23.976 (24000/1001) FPS
Color space : YUV
Chroma subsampling : 4:2:0
Bit depth : 8 bits
Scan type : Progressive
Bits/(Pixel*Frame) : 0.100
Stream size : 3.13 GiB (69%)
Writing library : x264 core 142 r2479 dd79a61
Encoding settings : cabac=1 / ref=1 / deblock=1:0:0 / analyse=0x1:0x111 / me=hex / subme=2 / psy=1 / psy_rd=1.00:0.00 / mixed_ref=0 / me_range=16 / chroma_me=1 / trellis=0 / 8x8dct=0 / cqm=0 / deadzone=21,11 / fast_pskip=1 / chroma_qp_offset=0 / threads=12 / lookahead_threads=4 / sliced_threads=0 / nr=0 / decimate=1 / interlaced=0 / bluray_compat=0 / constrained_intra=0 / bframes=3 / b_pyramid=2 / b_adapt=1 / b_bias=0 / direct=1 / weightb=1 / open_gop=0 / weightp=1 / keyint=240 / keyint_min=24 / scenecut=40 / intra_refresh=0 / rc_lookahead=10 / rc=crf / mbtree=1 / crf=20.0 / qcomp=0.60 / qpmin=0 / qpmax=69 / qpstep=4 / vbv_maxrate=20000 / vbv_bufsize=25000 / crf_max=0.0 / nal_hrd=none / filler=0 / ip_ratio=1.40 / aq=1:1.00
Language : Thai
Default : Yes
Forced : Yes
Color range : Limited
Color primaries : BT.709
Transfer characteristics : BT.709
Matrix coefficients : BT.709
Statistics Tags Issue : mkvmerge v8.3.0 ( Over the Horizon ) 64bit 2017-03-11 07:15:50 / mkvmerge v8.3.0 ( Over the Horizon ) 64bit 2017-03-11 07:15:50 / UTC 2017-03-11T03:53:57Z
FromStats_BitRate : 4873916
FromStats_Duration : 01:34:03.322000000
FromStats_FrameCount : 135304
FromStats_StreamSize : 3438134738

Audio #1
ID : 2
Format : DTS
Format/Info : Digital Theater Systems
Format profile : ES Matrix / Core
Mode : 16
Format settings, Endianness : Big
Codec ID : A_DTS
Duration : 1 h 34 min
Bit rate mode : Constant
Bit rate : 1 509 kb/s
Channel(s) : 7 channels / 6 channels
Channel positions : Front: L C R, Side: L R, Back: C, LFE / Front: L C R, Side: L R, LFE
Sampling rate : 48.0 kHz
Frame rate : 93.750 FPS (512 spf)
Bit depth : 24 bits
Compression mode : Lossy
Stream size : 1 015 MiB (22%)
Title : Surround
Language : English
Default : No
Forced : No
Statistics Tags Issue : mkvmerge v8.3.0 ( Over the Horizon ) 64bit 2017-03-11 07:15:50 / mkvmerge v8.3.0 ( Over the Horizon ) 64bit 2017-03-11 07:15:50 / UTC 2017-03-11T03:53:57Z
FromStats_BitRate : 1509000
FromStats_Duration : 01:34:03.296000000
FromStats_FrameCount : 529059
FromStats_StreamSize : 1064466708

Audio #2
ID : 3
Format : AC-3
Format/Info : Audio Coding 3
Mode extension : CM (complete main)
Format settings, Endianness : Big
Codec ID : A_AC3
Duration : 1 h 34 min
Bit rate mode : Constant
Bit rate : 448 kb/s
Channel(s) : 6 channels
Channel positions : Front: L C R, Side: L R, LFE
Sampling rate : 48.0 kHz
Frame rate : 31.250 FPS (1536 spf)
Compression mode : Lossy
Stream size : 301 MiB (7%)
Title : Surround
Language : Thai
Default : Yes
Forced : Yes
Statistics Tags Issue : mkvmerge v8.3.0 ( Over the Horizon ) 64bit 2017-03-11 07:15:50 / mkvmerge v8.3.0 ( Over the Horizon ) 64bit 2017-03-11 07:15:50 / UTC 2017-03-11T03:53:57Z
FromStats_BitRate : 448000
FromStats_Duration : 01:34:03.328000000
FromStats_FrameCount : 176354
FromStats_StreamSize : 316026368

Text #1
ID : 4
Format : PGS
Muxing mode : zlib
Codec ID : S_HDMV/PGS
Codec ID/Info : Picture based subtitle format used on BDs/HD-DVDs
Language : Thai
Default : Yes
Forced : Yes
Statistics Tags Issue : mkvmerge v8.3.0 ( Over the Horizon ) 64bit 2017-03-11 07:15:50 / mkvmerge v8.3.0 ( Over the Horizon ) 64bit 2017-03-11 07:15:50 / UTC 2017-03-11T03:53:57Z
FromStats_BitRate : 5428
FromStats_Duration : 01:33:16.257000000
FromStats_FrameCount : 1634
FromStats_StreamSize : 3797668

Text #2
ID : 5
Format : PGS
Muxing mode : zlib
Codec ID : S_HDMV/PGS
Codec ID/Info : Picture based subtitle format used on BDs/HD-DVDs
Language : English
Default : No
Forced : No
Statistics Tags Issue : mkvmerge v8.3.0 ( Over the Horizon ) 64bit 2017-03-11 07:15:50 / mkvmerge v8.3.0 ( Over the Horizon ) 64bit 2017-03-11 07:15:50 / UTC 2017-03-11T03:53:57Z
FromStats_BitRate : 15564
FromStats_Duration : 01:34:02.219000000
FromStats_FrameCount : 1640
FromStats_StreamSize : 10977262

4...
Ice Age Continental Drift (2012) / ไอซ์ เอจ เจาะยุคน้ำแข็งมหัศจรรย์ 4 - กำเนิดแผ่นดินใหม่
ในภาพยนตร์เรื่อง Ice Age: Continental Drift การวิ่งไล่ตามล่าลูกโอ๊คของเจ้าสแครชที่เกิดขึ้นแต่ช ่วงแรกทำให้เปลือกโลกเกิดความเปลี่ยนแปลงขึ้น ถือเป็นการเปลี่ยนแปลงภาคพื้นทวีปที่นำไปสู่การผจญภั ยแสนสนุกของ แมนนี่ (เรย์ โรมาโน่), ดิเอโก้ (เดนิส เลียรี่) และ ซิด (จอห์น เลกุยซาโม่) การแยกตัวของแผ่นเปลือกโลกที่เกิดขึ้นนี้ ทำให้ได้กลับไปหาคุณย่าขาวีนและฝูงสัตว์ทางทะเลที่มุ ่งมั่นขวางกั้นการกลับบ้านของพวกเขา

General
Unique ID : 209390321712493581374613492055708826589 (0x9D871BEBB0AFF8B09A970B598F447BDD)
Complete name : [Mini HD] Ice Age 4 Continental Drift (2012).mkv
Format : Matroska
Format version : Version 4 / Version 2
File size : 4.19 GiB
Duration : 1 h 27 min
Overall bit rate : 6 837 kb/s
Encoded date : UTC 2017-03-11 07:24:26 / UTC 2017-03-11T04:34:52Z
Writing application : mkvmerge v8.3.0 ( Over the Horizon ) 64bit
Writing library : libebml v1.3.1 + libmatroska v1.4.2 / Lavf55.12.0

Video
ID : 1
Format : AVC
Format/Info : Advanced Video Codec
Format profile : [email protected]
Format settings, CABAC : Yes
Format settings, ReFrames : 4 frames
Codec ID : V_MPEG4/ISO/AVC
Duration : 1 h 27 min
Bit rate : 4 744 kb/s
Width : 1 920 pixels
Height : 800 pixels
Display aspect ratio : 2.40:1
Frame rate mode : Constant
Frame rate : 23.976 (24000/1001) FPS
Color space : YUV
Chroma subsampling : 4:2:0
Bit depth : 8 bits
Scan type : Progressive
Bits/(Pixel*Frame) : 0.129
Stream size : 2.91 GiB (69%)
Writing library : x264 core 142 r2479 dd79a61
Encoding settings : cabac=1 / ref=1 / deblock=1:0:0 / analyse=0x1:0x111 / me=hex / subme=2 / psy=1 / psy_rd=1.00:0.00 / mixed_ref=0 / me_range=16 / chroma_me=1 / trellis=0 / 8x8dct=0 / cqm=0 / deadzone=21,11 / fast_pskip=1 / chroma_qp_offset=0 / threads=12 / lookahead_threads=4 / sliced_threads=0 / nr=0 / decimate=1 / interlaced=0 / bluray_compat=0 / constrained_intra=0 / bframes=3 / b_pyramid=2 / b_adapt=1 / b_bias=0 / direct=1 / weightb=1 / open_gop=0 / weightp=1 / keyint=240 / keyint_min=24 / scenecut=40 / intra_refresh=0 / rc_lookahead=10 / rc=crf / mbtree=1 / crf=20.0 / qcomp=0.60 / qpmin=0 / qpmax=69 / qpstep=4 / vbv_maxrate=20000 / vbv_bufsize=25000 / crf_max=0.0 / nal_hrd=none / filler=0 / ip_ratio=1.40 / aq=1:1.00
Language : Thai
Default : Yes
Forced : Yes
Color range : Limited
Color primaries : BT.709
Transfer characteristics : BT.709
Matrix coefficients : BT.709
Statistics Tags Issue : mkvmerge v8.3.0 ( Over the Horizon ) 64bit 2017-03-11 07:24:26 / mkvmerge v8.3.0 ( Over the Horizon ) 64bit 2017-03-11 07:24:26 / UTC 2017-03-11T04:34:52Z
FromStats_BitRate : 4859498
FromStats_Duration : 01:27:45.278000000
FromStats_FrameCount : 126240
FromStats_StreamSize : 3198326613

Audio #1
ID : 2
Format : DTS
Format/Info : Digital Theater Systems
Mode : 16
Format settings, Endianness : Big
Codec ID : A_DTS
Duration : 1 h 27 min
Bit rate mode : Constant
Bit rate : 1 509 kb/s
Channel(s) : 6 channels
Channel positions : Front: L C R, Side: L R, LFE
Sampling rate : 48.0 kHz
Frame rate : 93.750 FPS (512 spf)
Bit depth : 24 bits
Compression mode : Lossy
Stream size : 947 MiB (22%)
Title : Surround
Language : English
Default : No
Forced : No
Statistics Tags Issue : mkvmerge v8.3.0 ( Over the Horizon ) 64bit 2017-03-11 07:24:26 / mkvmerge v8.3.0 ( Over the Horizon ) 64bit 2017-03-11 07:24:26 / UTC 2017-03-11T04:34:52Z
FromStats_BitRate : 1508999
FromStats_Duration : 01:27:45.259000000
FromStats_FrameCount : 493618
FromStats_StreamSize : 993159416

Audio #2
ID : 3
Format : AC-3
Format/Info : Audio Coding 3
Mode extension : CM (complete main)
Format settings, Endianness : Big
Codec ID : A_AC3
Duration : 1 h 27 min
Bit rate mode : Constant
Bit rate : 448 kb/s
Channel(s) : 6 channels
Channel positions : Front: L C R, Side: L R, LFE
Sampling rate : 48.0 kHz
Frame rate : 31.250 FPS (1536 spf)
Compression mode : Lossy
Stream size : 281 MiB (7%)
Title : Surround
Language : Thai
Default : Yes
Forced : Yes
Statistics Tags Issue : mkvmerge v8.3.0 ( Over the Horizon ) 64bit 2017-03-11 07:24:26 / mkvmerge v8.3.0 ( Over the Horizon ) 64bit 2017-03-11 07:24:26 / UTC 2017-03-11T04:34:52Z
FromStats_BitRate : 448000
FromStats_Duration : 01:27:45.280000000
FromStats_FrameCount : 164540
FromStats_StreamSize : 294855680

Text #1
ID : 4
Format : PGS
Muxing mode : zlib
Codec ID : S_HDMV/PGS
Codec ID/Info : Picture based subtitle format used on BDs/HD-DVDs
Language : English
Default : No
Forced : No
Statistics Tags Issue : mkvmerge v8.3.0 ( Over the Horizon ) 64bit 2017-03-11 07:24:26 / mkvmerge v8.3.0 ( Over the Horizon ) 64bit 2017-03-11 07:24:26 / UTC 2017-03-11T04:34:52Z
FromStats_BitRate : 9908
FromStats_Duration : 01:25:31.710000000
FromStats_FrameCount : 2302
FromStats_StreamSize : 6355678

Text #2
ID : 5
Format : PGS
Muxing mode : zlib
Codec ID : S_HDMV/PGS
Codec ID/Info : Picture based subtitle format used on BDs/HD-DVDs
Language : Thai
Default : Yes
Forced : Yes
Statistics Tags Issue : mkvmerge v8.3.0 ( Over the Horizon ) 64bit 2017-03-11 07:24:26 / mkvmerge v8.3.0 ( Over the Horizon ) 64bit 2017-03-11 07:24:26 / UTC 2017-03-11T04:34:52Z
FromStats_BitRate : 7881
FromStats_Duration : 01:26:12.500000000
FromStats_FrameCount : 2313
FromStats_StreamSize : 5096151

5...
Ice Age : Collision Course (2016) / ไอซ์ เอจ : ผจญอุกาบาตสุดอลเวง
เล่าการผจญภัยสู่อวกาศของเจ้ากระรอกตัวป่วนอย่างสแคร ็ท ที่สร้างรังสีบางอย่างซึ่งทำให้โลกยุคน้ำแข็งได้รับผ ลกระทบอย่างไม่ตั้งใจและในเมื่อความซนของเจ้าสแคร็ทท ำให้โลกยุคน้ำแข็งตกอยู่ในอันตราย เรื่องราวของแอนิเมชั่น Ice Age : Collision Course จึงเล่าการเดินทางครั้งใหม่ของก๊วนสัตว์โลกน้ำแข็งอย ่าง แมนนี่, แอลลี่, ดีเอโก้, ชีร่า และซิด ที่จำใจทิ้งบ้านซึ่งกำลังถูกคุกคามอย่างหนัก โดยพวกเขาออกเดินทางอย่างไร้จุดหมายไปสู่สถานที่ที่ไ ม่คุ้นเคย สถานที่แห่งนั้นคือดินแดนสุดอัศจรรย์ซึ่งมีเจ้าแชงกร ีลามะเป็นผู้นำลัทธิ
General
Unique ID : 221433250820431961451377275059150416198 (0xA6967E2B030520B8B0BCF69926126946)
Complete name : [Mini HD] Ice Age 5 Collision Course (2016).mkv
Format : Matroska
Format version : Version 4 / Version 2
File size : 4.36 GiB
Duration : 1 h 34 min
Overall bit rate : 6 598 kb/s
Encoded date : UTC 2017-03-11 07:19:52 / UTC 2017-03-11T05:25:25Z
Writing application : mkvmerge v8.3.0 ( Over the Horizon ) 64bit
Writing library : libebml v1.3.1 + libmatroska v1.4.2 / Lavf55.12.0

Video
ID : 1
Format : AVC
Format/Info : Advanced Video Codec
Format profile : [email protected]
Format settings, CABAC : Yes
Format settings, ReFrames : 4 frames
Codec ID : V_MPEG4/ISO/AVC
Duration : 1 h 34 min
Bit rate : 4 510 kb/s
Width : 1 920 pixels
Height : 800 pixels
Display aspect ratio : 2.40:1
Frame rate mode : Constant
Frame rate : 23.976 (24000/1001) FPS
Color space : YUV
Chroma subsampling : 4:2:0
Bit depth : 8 bits
Scan type : Progressive
Bits/(Pixel*Frame) : 0.122
Stream size : 2.98 GiB (68%)
Writing library : x264 core 142 r2479 dd79a61
Encoding settings : cabac=1 / ref=1 / deblock=1:0:0 / analyse=0x1:0x111 / me=hex / subme=2 / psy=1 / psy_rd=1.00:0.00 / mixed_ref=0 / me_range=16 / chroma_me=1 / trellis=0 / 8x8dct=0 / cqm=0 / deadzone=21,11 / fast_pskip=1 / chroma_qp_offset=0 / threads=12 / lookahead_threads=4 / sliced_threads=0 / nr=0 / decimate=1 / interlaced=0 / bluray_compat=0 / constrained_intra=0 / bframes=3 / b_pyramid=2 / b_adapt=1 / b_bias=0 / direct=1 / weightb=1 / open_gop=0 / weightp=1 / keyint=240 / keyint_min=24 / scenecut=40 / intra_refresh=0 / rc_lookahead=10 / rc=crf / mbtree=1 / crf=20.0 / qcomp=0.60 / qpmin=0 / qpmax=69 / qpstep=4 / vbv_maxrate=20000 / vbv_bufsize=25000 / crf_max=0.0 / nal_hrd=none / filler=0 / ip_ratio=1.40 / aq=1:1.00
Language : Thai
Default : Yes
Forced : Yes
Color range : Limited
Color primaries : BT.709
Transfer characteristics : BT.709
Matrix coefficients : BT.709
Statistics Tags Issue : mkvmerge v8.3.0 ( Over the Horizon ) 64bit 2017-03-11 07:19:52 / mkvmerge v8.3.0 ( Over the Horizon ) 64bit 2017-03-11 07:19:52 / UTC 2017-03-11T05:25:25Z
FromStats_BitRate : 4621537
FromStats_Duration : 01:34:32.768000000
FromStats_FrameCount : 136010
FromStats_StreamSize : 3277113887

Audio #1
ID : 2
Format : DTS
Format/Info : Digital Theater Systems
Format profile : ES Matrix / Core
Mode : 16
Format settings, Endianness : Big
Codec ID : A_DTS
Duration : 1 h 34 min
Bit rate mode : Constant
Bit rate : 1 509 kb/s
Channel(s) : 7 channels / 6 channels
Channel positions : Front: L C R, Side: L R, Back: C, LFE / Front: L C R, Side: L R, LFE
Sampling rate : 48.0 kHz
Frame rate : 93.750 FPS (512 spf)
Bit depth : 24 bits
Compression mode : Lossy
Stream size : 1 020 MiB (23%)
Title : Surround
Language : English
Default : No
Forced : No
Statistics Tags Issue : mkvmerge v8.3.0 ( Over the Horizon ) 64bit 2017-03-11 07:19:52 / mkvmerge v8.3.0 ( Over the Horizon ) 64bit 2017-03-11 07:19:52 / UTC 2017-03-11T05:25:25Z
FromStats_BitRate : 1508999
FromStats_Duration : 01:34:27.659000000
FromStats_FrameCount : 531343
FromStats_StreamSize : 1069062116

Audio #2
ID : 3
Format : AC-3
Format/Info : Audio Coding 3
Mode extension : CM (complete main)
Format settings, Endianness : Big
Codec ID : A_AC3
Duration : 1 h 34 min
Bit rate mode : Constant
Bit rate : 448 kb/s
Channel(s) : 6 channels
Channel positions : Front: L C R, Side: L R, LFE
Sampling rate : 48.0 kHz
Frame rate : 31.250 FPS (1536 spf)
Compression mode : Lossy
Stream size : 303 MiB (7%)
Title : Surround
Language : Thai
Default : Yes
Forced : Yes
Statistics Tags Issue : mkvmerge v8.3.0 ( Over the Horizon ) 64bit 2017-03-11 07:19:52 / mkvmerge v8.3.0 ( Over the Horizon ) 64bit 2017-03-11 07:19:52 / UTC 2017-03-11T05:25:25Z
FromStats_BitRate : 448000
FromStats_Duration : 01:34:32.768000000
FromStats_FrameCount : 177274
FromStats_StreamSize : 317675008

Text #1
ID : 4
Format : PGS
Muxing mode : zlib
Codec ID : S_HDMV/PGS
Codec ID/Info : Picture based subtitle format used on BDs/HD-DVDs
Language : English
Default : No
Forced : No
Statistics Tags Issue : mkvmerge v8.3.0 ( Over the Horizon ) 64bit 2017-03-11 07:19:52 / mkvmerge v8.3.0 ( Over the Horizon ) 64bit 2017-03-11 07:19:52 / UTC 2017-03-11T05:25:25Z
FromStats_BitRate : 11536
FromStats_Duration : 01:25:46.708000000
FromStats_FrameCount : 2444
FromStats_StreamSize : 7421929

Text #2
ID : 5
Format : PGS
Muxing mode : zlib
Codec ID : S_HDMV/PGS
Codec ID/Info : Picture based subtitle format used on BDs/HD-DVDs
Language : Thai
Default : Yes
Forced : Yes
Statistics Tags Issue : mkvmerge v8.3.0 ( Over the Horizon ) 64bit 2017-03-11 07:19:52 / mkvmerge v8.3.0 ( Over the Horizon ) 64bit 2017-03-11 07:19:52 / UTC 2017-03-11T05:25:25Z
FromStats_BitRate : 8129
FromStats_Duration : 01:33:34.343000000
FromStats_FrameCount : 2450
FromStats_StreamSize : 5705025




Ice Age 2 The Meltdown.mkv - 3.9 GB
Ice Age 3 Dawn Of The Dinosaurs.mkv - 4.5 GB
Ice Age 4 Continental Drift.mkv - 4.2 GB
Ice Age 5 Collision Course.mkv - 4.4 GB
Ice Age.2002.mkv - 3.1 GB


1
http://www.mekafile.com/dl.php?f=iGf5f1bykbKK
2
http://www.mekafile.com/dl.php?f=dfb688bykaZF
3
http://www.mekafile.com/dl.php?f=vq0d52bykby6
4
http://www.mekafile.com/dl.php?f=4K96f9bykal8
5
http://www.mekafile.com/dl.php?f=sd7f5ebykbS5