+ Reply to Thread
Results 1 to 3 of 3
  1. #1
    Administrators Duckload.us's Avatar
    Join Date
    Dec 2010
    Posts
    83,049
    Thanks
    9
    Thanked 88,021 Times in 42,062 Posts

    Question [ฝรั่ง]-[MKV] Kingsman: The Golden Circle (2017) - คิงส์แมน รวมพลังโคตรพยัคฆ์ SoundTrack DTS/บรรยายไทยแปลดี-Encode.DTS.1080p. [Modified]-[Soundtrack บรรยายไทย]

    cornfile.com




    Kingsman: The Golden Circle (2017) ได้รับการกำกับโดย Matthew Vaughn (ผู้กำกับจากภาคที่แล้ว) สำหรับภาคนี้ Kingsman ดำเนินเรื่องต่อจากภาคแรก Eggsy ได้รับช่วงต่อเป็น Galahad คนใหม่ ทำภารกิจใหม่หยุดยั้งองค์กรชั่วร้าย " The Golden Circle " ไม่ให้ครอบครองโลก โดย Kingsman จะเดินทางจากลอนดอนข้ามไปยังอเมริกา เพื่อร่วมทำงานกับองค์กรสายลับพันธมิตรในสหรัฐ " Statesman " หลังจากที่ Kingsman โดน The Golden Circle ถล่มเละไป

    เรื่องย่อ

    Kingsman: The Golden Circle จะพาไปพบกับโลกของคิงส์แมน ซึ่งเป็นหน่วยงานอิสระลงมือด้านปฏิบัติการลับเพื่อสื บหาข่าวกรองที่มีความรอบคอบระดับสูงสุดระหว่างประเทศ เป้าหมายสำคัญคือเพื่อปกป้องโลกให้อยู่ในความสงบ ในภาพยนตร์เรื่องนี้ ฮีโร่ของเราต้องพบกับความท้าทายครั้งใหม่ เมื่อกองบัญชาการของพวกเขาถูกทำลายลงและโลกต้องตกเป็ นตัวประกัน การผจญภัยของพวกเขาได้นำไปสู่การค้นพบกับกลุ่มสายลับ ที่เป็นพันธมิตรในสหรัฐฯ ที่ชื่อว่าสเตทส์แมน ซึ่งเป็นการหวนกลับไปหาวันที่ทั้งคู่ได้รับการก่อตั้ งขึ้นมา การผจญภัยครั้งใหม่นี้จะมีการทดสอบความแข็งแกร่งและไ หวพริบปฏิภาณของสายลับพวกเขาอย่างสุดกำลัง ทั้งสองสุดยอดองค์กรลับจะต้องร่วมมือกันกำจัดศัตรูตั วร้าย เพื่อปกป้องโลกและเป็นสิ่งที่กลายเป็นนิสัยของเอ็กซี ่ไปแล้ว…






















    General
    Unique ID : 175503718205854525403581901144839642724 (0x8408C9603764B3969DD184AE871B5E64)
    Complete name : D:หนังKingsman The Golden Circle [2017] [1080p]Kingsman- The Golden Circle (931).mkv
    Format : Matroska
    Format version : Version 4 / Version 2
    File size : 9.86 GiB
    Duration : 2 h 21 min
    Overall bit rate : 10.0 Mb/s
    Encoded date : UTC 2017-12-05 12:42:06
    Writing application : mkvmerge v18.0.0 ( Apricity ) 64-bit
    Writing library : libebml v1.3.5 + libmatroska v1.4.8

    Video
    ID : 1
    Format : AVC
    Format/Info : Advanced Video Codec
    Format profile : [email protected]
    Format settings, CABAC : Yes
    Format settings, ReFrames : 5 frames
    Codec ID : V_MPEG4/ISO/AVC
    Duration : 2 h 21 min
    Bit rate : 8 473 kb/s
    Width : 1 920 pixels
    Height : 808 pixels
    Display aspect ratio : 2.40:1
    Frame rate mode : Constant
    Frame rate : 23.976 (24000/1001) FPS
    Color space : YUV
    Chroma subsampling : 4:2:0
    Bit depth : 8 bits
    Scan type : Progressive
    Bits/(Pixel*Frame) : 0.228
    Stream size : 8.35 GiB (85%)
    Writing library : x264 core 152 r2851 ba24899
    Encoding settings : cabac=1 / ref=5 / deblock=1:-3:-3 / analyse=0x3:0x113 / me=umh / subme=8 / psy=1 / psy_rd=1.00:0.00 / mixed_ref=1 / me_range=16 / chroma_me=1 / trellis=1 / 8x8dct=1 / cqm=0 / deadzone=21,11 / fast_pskip=1 / chroma_qp_offset=-2 / threads=25 / lookahead_threads=4 / sliced_threads=0 / nr=0 / decimate=1 / interlaced=0 / bluray_compat=0 / constrained_intra=0 / bframes=3 / b_pyramid=2 / b_adapt=1 / b_bias=0 / direct=3 / weightb=1 / open_gop=0 / weightp=2 / keyint=240 / keyint_min=24 / scenecut=40 / intra_refresh=0 / rc_lookahead=50 / rc=2pass / mbtree=1 / bitrate=8473 / ratetol=1.0 / qcomp=0.60 / qpmin=0 / qpmax=69 / qpstep=4 / cplxblur=20.0 / qblur=0.5 / ip_ratio=1.40 / aq=1:1.00
    Default : Yes
    Forced : No

    Audio
    ID : 2
    Format : DTS
    Format/Info : Digital Theater Systems
    Mode : 16
    Format settings, Endianness : Big
    Codec ID : A_DTS
    Duration : 2 h 21 min
    Bit rate mode : Constant
    Bit rate : 1 509 kb/s
    Channel(s) : 6 channels
    Channel positions : Front: L C R, Side: L R, LFE
    Sampling rate : 48.0 kHz
    Frame rate : 93.750 FPS (512 spf)
    Bit depth : 24 bits
    Compression mode : Lossy
    Stream size : 1.49 GiB (15%)
    Language : English
    Default : Yes
    Forced : No

    Text #1
    ID : 3
    Format : VobSub
    Muxing mode : zlib
    Codec ID : S_VOBSUB
    Codec ID/Info : Picture based subtitle format used on DVDs
    Duration : 2 h 13 min
    Bit rate : 10.8 kb/s
    Count of elements : 1943
    Stream size : 10.3 MiB (0%)
    Language : Thai
    Default : Yes
    Forced : No

    Text #2
    ID : 4
    Format : VobSub
    Muxing mode : zlib
    Codec ID : S_VOBSUB
    Codec ID/Info : Picture based subtitle format used on DVDs
    Duration : 2 h 13 min
    Bit rate : 13.6 kb/s
    Count of elements : 1943
    Stream size : 12.9 MiB (0%)
    Language : Thai
    Default : No
    Forced : No

    Text #3
    ID : 5
    Format : VobSub
    Muxing mode : zlib
    Codec ID : S_VOBSUB
    Codec ID/Info : Picture based subtitle format used on DVDs
    Duration : 2 h 13 min
    Bit rate : 14.0 kb/s
    Count of elements : 1943
    Stream size : 13.3 MiB (0%)
    Language : Thai
    Default : No
    Forced : No

    Menu
    00:00:00.000 : en:00:00:00.000
    00:04:51.958 : en:00:04:51.958
    00:09:39.454 : en:00:09:39.454
    00:13:36.607 : en:00:13:36.607
    00:18:54.300 : en:00:18:54.300
    00:24:57.287 : en:00:24:57.287
    00:28:43.347 : en:00:28:43.347
    00:32:52.304 : en:00:32:52.304
    00:39:18.731 : en:00:39:18.731
    00:43:21.849 : en:00:43:21.849
    00:48:26.570 : en:00:48:26.570
    00:53:54.106 : en:00:53:54.106
    00:58:31.258 : en:00:58:31.258
    01:05:04.901 : en:01:05:04.901
    01:09:52.522 : en:01:09:52.522
    01:13:34.744 : en:01:13:34.744
    01:19:41.860 : en:01:19:41.860
    01:23:45.103 : en:01:23:45.103
    01:28:55.288 : en:01:28:55.288
    01:33:25.225 : en:01:33:25.225
    01:40:14.759 : en:01:40:14.759
    01:45:03.255 : en:01:45:03.255
    01:49:38.489 : en:01:49:38.489
    01:55:15.992 : en:01:55:15.992
    02:01:40.835 : en:02:01:40.835
    02:05:44.036 : en:02:05:44.036
    02:12:36.407 : en:02:12:36.407
    02:15:15.274 : en:02:15:15.274



    Download: cornfile
    http://cornfile.com/8570i2tdq4oc
    Download: mekafile
    http://www.mekafile.com/dl.php?f=EXe717byxG6P

  2. The Following 6 Users Say Thank You to Duckload.us For This Useful Post:

    amorn wichian (12-14-2017), bigbang06 (12-12-2017), mta28 (12-09-2017), OppU (12-07-2017), PUNKROCK (12-06-2017), ROMANQVE (12-07-2017)

  3. #2
    Junior Member
    Join Date
    Oct 2015
    Posts
    12
    Thanks
    0
    Thanked 0 Times in 0 Posts
    ขอบคุณครับ

  4. #3
    Senior Member PUNKROCK's Avatar
    Join Date
    Jul 2011
    Posts
    1,088
    Thanks
    917
    Thanked 0 Times in 0 Posts
    . ขอบพระคุณอย่างสูงครับ
    PUNKROCK NEVERDIE

+ Reply to Thread

Thread Information

Users Browsing this Thread

There are currently 1 users browsing this thread. (0 members and 1 guests)

     

Posting Permissions

  • You may not post new threads
  • You may not post replies
  • You may not post attachments
  • You may not edit your posts