เรื่องย่อ
Driven ภาพยนตร์ที่ จะพาผู้ชม เข้าไปในโลก ของการแข่งรถ ที่อันตรายและ น่าตื่นเต้นเรื่องนี้ มีสูญกลางอยู่ที่ นักแข่งรถสี่คน ที่กำลังวิ่งไล่ ตามความสำเร็จ อย่างไม่คิดชีวิตจิมมี่ ไบล์ (คิพ พาร์ดูว์) นักแข่งมือใหม่ ที่มีพรสวรรค์ แต่ไม่ได้รับ การเหลียวแล กำลังตกอยู่ ภายใต้แรงผลักดันจากเดอมิลล์ (โรเบิร์ต ฌอน ลีโอนาร์ด) พี่ชายผู้เป็นโปรโมเตอร์ ด้วยความผิดหวัง จิมมี่จึงหันไปมีความสัมพันธ์กับ โซเฟีย ซิโมน (เอสเทลล่า วอร์เรน) แฟนสาวของคู่แข่งของเขาเอง ซึ่งเป็นนักแข่งรถ มือหนึ่งนามว่า โบ บราเดนเบิร์ก (ทิล ชไวเกอร์)เพราะปัญหามากมายของไบล์นี่เอง จึงทำให้เจ้าของทีมอย่างคาร์ล เฮนรี่ (เบิร์ต เรย์โนลด์) ไปขอความช่วยเหลือจากโจ แทนโต้ (ซิลเวสเตอร์ สตอลโลน) อดีตมือหนึ่ง ที่เส้นทางอาชีพต้องปิดลงภายหลังจากเกิดอุบัติเหตุรุ นแรงครั้งหนึ่ง อย่างไรก็ดีการที่จะผลักดันไบล์ให้ขึ้นสู่จุดสูงสุดไ ด้นั้น แทนโต้ต้องแก้ปัญหาต่าง ๆ ให้ได้เสียก่อน ไม่ว่าจะเป็นการลบภา ความกลัวในอดีต การหลบหนี การตามตื๊อ ของนักข่าวสาว ลูครีเทีย แคลน (สเตซี่ เอ็ดเวิร์ดส์) หรือแผลคาใจระหว่างเขากับเคธี่ (จีน่า เกอร์ชอน) อดีตภรรยาที่ปัจจุบันแต่งงานกับนักแข่งรถคู่แข่งที่ช ื่อ เมโม โมเรโน่ (คริสเตียน เดอ ลา ฟอนเต้) ตกอยู่ท่ามกลางความสำเร็จ, ความล้มเหลว, ความผิดหวัง และความเร็ว นักแข่งทั้ง 4 ถูกบีบให้ ต้องไล่ล่า หาเกียรติยศ อย่างหลีกเลี่ยงไม่ได้

Format : Matroska
Format version : Version 4 / Version 2
File size : 3.52 GiB
Duration : 1 h 56 min
Overall bit rate : 4 318 kb/s
Movie name : [email protected]
Encoded date : UTC 2017-12-05 04:49:44
Writing application : mkvmerge v18.0.0 ( Apricity ) 64-bit
Writing library : libebml v1.3.5 + libmatroska v1.4.8
Cover : Yes
Attachments : cover.jpg

Video
ID : 1
Format : AVC
Format/Info : Advanced Video Codec
Format profile : [email protected]
Format settings, CABAC : Yes
Format settings, ReFrames : 4 frames
Codec ID : V_MPEG4/ISO/AVC
Duration : 1 h 56 min
Bit rate : 2 050 kb/s
Width : 1 920 pixels
Height : 800 pixels
Display aspect ratio : 2.40:1
Frame rate mode : Constant
Frame rate : 23.976 (24000/1001) FPS
Color space : YUV
Chroma subsampling : 4:2:0
Bit depth : 8 bits
Scan type : Progressive
Bits/(Pixel*Frame) : 0.056
Stream size : 1.67 GiB (47%)
Title : @@Present by [email protected]@
Writing library : x264 core 148
Encoding settings : cabac=1 / ref=4 / deblock=1:-1:-1 / analyse=0x3:0x133 / me=umh / subme=9 / psy=1 / psy_rd=1.00:0.15 / mixed_ref=1 / me_range=24 / chroma_me=1 / trellis=2 / 8x8dct=1 / cqm=0 / deadzone=21,11 / fast_pskip=0 / chroma_qp_offset=-3 / threads=12 / lookahead_threads=1 / sliced_threads=0 / nr=0 / decimate=1 / interlaced=0 / bluray_compat=0 / constrained_intra=0 / bframes=3 / b_pyramid=2 / b_adapt=2 / b_bias=0 / direct=3 / weightb=1 / open_gop=0 / weightp=2 / keyint=250 / keyint_min=23 / scenecut=40 / intra_refresh=0 / rc_lookahead=60 / rc=2pass / mbtree=1 / bitrate=2050 / ratetol=1.0 / qcomp=0.60 / qpmin=0 / qpmax=69 / qpstep=4 / cplxblur=20.0 / qblur=0.5 / vbv_maxrate=31250 / vbv_bufsize=31250 / nal_hrd=none / filler=0 / ip_ratio=1.40 / aq=1:1.00
Language : English
Default : Yes
Forced : No

Audio #1
ID : 2
Format : AC-3
Format/Info : Audio Coding 3
Mode extension : CM (complete main)
Format settings, Endianness : Big
Codec ID : A_AC3
Duration : 1 h 56 min
Bit rate mode : Constant
Bit rate : 448 kb/s
Channel(s) : 6 channels
Channel positions : Front: L C R, Side: L R, LFE
Sampling rate : 48.0 kHz
Frame rate : 31.250 FPS (1536 spf)
Bit depth : 16 bits
Compression mode : Lossy
Delay relative to video : -43 ms
Stream size : 374 MiB (10%)
Title : Thai AC3 5.1 Master
Language : Thai
Default : Yes
Forced : Yes

Audio #2
ID : 3
Format : DTS
Format/Info : Digital Theater Systems
Mode : 16
Format settings, Endianness : Big
Codec ID : A_DTS
Duration : 1 h 56 min
Bit rate mode : Constant
Bit rate : 1 509 kb/s
Channel(s) : 6 channels
Channel positions : Front: L C R, Side: L R, LFE
Sampling rate : 48.0 kHz
Frame rate : 93.750 FPS (512 spf)
Bit depth : 24 bits
Compression mode : Lossy
Delay relative to video : -32 ms
Stream size : 1.23 GiB (35%)
Title : Eng DTS 5.1
Language : English
Default : No
Forced : No

Audio #3
ID : 4
Format : AAC
Format/Info : Advanced Audio Codec
Format profile : LC
Codec ID : A_AAC
Duration : 1 h 56 min
Bit rate : 132 kb/s
Channel(s) : 2 channels
Channel positions : Front: L R
Sampling rate : 48.0 kHz
Frame rate : 46.875 FPS (1024 spf)
Compression mode : Lossy
Delay relative to video : -43 ms
Stream size : 110 MiB (3%)
Title : Eng AAC 2.0
Language : English
Default : No
Forced : No

Text #1
ID : 5
Format : PGS
Muxing mode : zlib
Codec ID : S_HDMV/PGS
Codec ID/Info : Picture based subtitle format used on BDs/HD-DVDs
Duration : 1 h 55 min
Bit rate : 32.3 kb/s
Count of elements : 2686
Stream size : 26.6 MiB (1%)
Title : Eng
Language : English
Default : No
Forced : No

Text #2
ID : 6
Format : PGS
Muxing mode : zlib
Codec ID : S_HDMV/PGS
Codec ID/Info : Picture based subtitle format used on BDs/HD-DVDs
Duration : 1 h 49 min
Bit rate : 38.9 kb/s
Count of elements : 3118
Stream size : 30.4 MiB (1%)
Title : Thai PGS Tahoma
Language : Thai
Default : No
Forced : No

Text #3
ID : 7
Format : PGS
Muxing mode : zlib
Codec ID : S_HDMV/PGS
Codec ID/Info : Picture based subtitle format used on BDs/HD-DVDs
Duration : 1 h 49 min
Bit rate : 38.9 kb/s
Count of elements : 3118
Stream size : 30.4 MiB (1%)
Title : Thai PGS Tahoma UNDER
Language : Thai
Default : No
Forced : No

Text #4
ID : 8
Format : PGS
Muxing mode : zlib
Codec ID : S_HDMV/PGS
Codec ID/Info : Picture based subtitle format used on BDs/HD-DVDs
Duration : 1 h 49 min
Bit rate : 42.5 kb/s
Count of elements : 3118
Stream size : 33.3 MiB (1%)
Title : Thai PGS Freesia
Language : Thai
Default : No
Forced : No

Text #5
ID : 9
Format : PGS
Muxing mode : zlib
Codec ID : S_HDMV/PGS
Codec ID/Info : Picture based subtitle format used on BDs/HD-DVDs
Duration : 1 h 49 min
Bit rate : 42.5 kb/s
Count of elements : 3118
Stream size : 33.3 MiB (1%)
Title : Thai PGS Freesia UNDER
Language : Thai
Default : No
Forced : No

Text #6
ID : 10
Format : PGS
Muxing mode : zlib
Codec ID : S_HDMV/PGS
Codec ID/Info : Picture based subtitle format used on BDs/HD-DVDs
Duration : 1 h 49 min
Bit rate : 44.2 kb/s
Count of elements : 3118
Stream size : 34.6 MiB (1%)
Title : Thai PGS Cordia
Language : Thai
Default : No
Forced : No

Text #7
ID : 11
Format : PGS
Muxing mode : zlib
Codec ID : S_HDMV/PGS
Codec ID/Info : Picture based subtitle format used on BDs/HD-DVDs
Duration : 1 h 49 min
Bit rate : 44.2 kb/s
Count of elements : 3118
Stream size : 34.6 MiB (1%)
Title : Thai PGS Cordia UNDER
Language : Thai
Default : No
Forced : No

Text #8
ID : 12
Format : PGS
Muxing mode : zlib
Codec ID : S_HDMV/PGS
Codec ID/Info : Picture based subtitle format used on BDs/HD-DVDs
Duration : 1 h 49 min
Bit rate : 44.5 kb/s
Count of elements : 3118
Stream size : 34.8 MiB (1%)
Title : Thai PGS Angsana
Language : Thai
Default : Yes
Forced : Yes

Text #9
ID : 13
Format : PGS
Muxing mode : zlib
Codec ID : S_HDMV/PGS
Codec ID/Info : Picture based subtitle format used on BDs/HD-DVDs
Duration : 1 h 49 min
Bit rate : 44.5 kb/s
Count of elements : 3118
Stream size : 34.8 MiB (1%)
Title : Thai PGS Angsana UNDER
Language : Thai
Default : No
Forced : No

Text #10
ID : 14
Format : VobSub
Muxing mode : zlib
Codec ID : S_VOBSUB
Codec ID/Info : Picture based subtitle format used on DVDs
Duration : 1 h 49 min
Bit rate : 9 759 b/s
Count of elements : 1559
Stream size : 7.65 MiB (0%)
Title : Thai 1080p
Language : Thai
Default : No
Forced : No

Text #11
ID : 15
Format : VobSub
Muxing mode : zlib
Codec ID : S_VOBSUB
Codec ID/Info : Picture based subtitle format used on DVDs
Duration : 1 h 49 min
Bit rate : 9 759 b/s
Count of elements : 1559
Stream size : 7.65 MiB (0%)
Title : Thai 1080p UNDER
Language : Thai
Default : No
Forced : No

Text #12
ID : 16
Format : VobSub
Muxing mode : zlib
Codec ID : S_VOBSUB
Codec ID/Info : Picture based subtitle format used on DVDs
Duration : 1 h 49 min
Bit rate : 2 929 b/s
Count of elements : 1559
Stream size : 2.30 MiB (0%)
Title : Thai 480p
Language : Thai
Default : No
Forced : No

Text #13
ID : 17
Format : VobSub
Muxing mode : zlib
Codec ID : S_VOBSUB
Codec ID/Info : Picture based subtitle format used on DVDs
Duration : 1 h 49 min
Bit rate : 2 929 b/s
Count of elements : 1559
Stream size : 2.30 MiB (0%)
Title : Thai 480p UNDER
Language : Thai
Default : No
Forced : No




Download: cornfile
http://cornfile.com/twyqbow4fqfd
Download: mekafile
http://www.mekafile.com/dl.php?f=mA4376byAiJq