The Great Wall (2016) เดอะ เกรท วอลล์
The Great Wall เดอะ เกรท วอลล์ ภาพยนตร์แอ็คชั่นทริลเลอร์สุดอลังการที่รวมซุปเปอร์ส ตาร์ระดับโลกมาร่วมแสดง นำโดย แมตต์ เดม่อน, จิงเทียน, เปโดร ปาสคาล, วิลเลม เดโฟ, จางฮั่นหยู, เอ็ดดี้ เผิง, ลู่หาน และ หลิวเต๋อหัว ภาพยนตร์กำกับการแสดงโดย จางอวี้โหมว จาก Hero และ House of Flying Daggers
เดอะ เกรท วอลล์ เล่าเรื่องการสร้างสิ่งก่อสร้างที่โดดเด่นของมวลมนุษ ยชาติจนกลายมาเป็นหนึ่งในสิ่งมหัศจรรย์ของโลก ภาพยนตร์เรื่องนี้คือการสร้างภาพยนตร์ภาษาอังกฤษเรื่ องแรกของจางอวี้โหมวในจีน และเป็นภาพยนตร์ฟอร์มยักษ์ที่สุดเท่าที่เคยถ่ายทำกัน มาในจีนอีกด้วย


[4K.mini.HDR].The.Great.Wall.2016.2160p.BluRay.x265 Thai 5.1
English Dolby Atmos/TrueHD Audio :BluRay 4K
Thai Dolby AC3 Audio :BluRay 2K :NongZEZA




Format : Matroska
File size : 16.8 GiB
Duration : 1h 43mn
Overall bit rate mode : Variable
Overall bit rate : 23.4 Mbps

Video
ID : 1
Format : HEVC
Format/Info : High Efficiency Video Coding
Format profile : Main [email protected]@High
Codec ID : V_MPEGH/ISO/HEVC
Duration : 1h 43mn
Bit rate : 16.4 Mbps
Width : 3 840 pixels
Height : 1 608 pixels
Display aspect ratio : 2.40:1
Frame rate mode : Constant
Frame rate : 23.976 (24000/1001) fps
Color space : YUV
Chroma subsampling : 4:2:0
Bit depth : 10 bits
Bits/(Pixel*Frame) : 0.111
Stream size : 11.8 GiB (70%)
Writing library : x265 2.5+66-dae558b40d99:[Windows][GCC 6.2.1][64 bit] 10bit
Encoding settings : cpuid=1173503 / frame-threads=4 / numa-pools=16 / wpp / no-pmode / no-pme / no-psnr / no-ssim / log-level=2 / input-csp=1 / input-res=3840x1608 / interlace=0 / total-frames=148280 / level-idc=51 / high-tier=1 / uhd-bd=0 / ref=4 / no-allow-non-conformance / repeat-headers / annexb / aud / hrd / info / hash=0 / no-temporal-layers / no-open-gop / min-keyint=1 / keyint=24 / bframes=4 / b-adapt=2 / b-pyramid / bframe-bias=0 / rc-lookahead=25 / lookahead-slices=4 / scenecut=40 / no-intra-refresh / ctu=64 / min-cu-size=8 / rect / no-amp / max-tu-size=32 / tu-inter-depth=1 / tu-intra-depth=1 / limit-tu=0 / rdoq-level=2 / dynamic-rd=0.00 / no-ssim-rd / signhide / no-tskip / nr-intra=0 / nr-inter=0 / no-constrained-intra / no-strong-intra-smoothing / max-merge=3 / limit-refs=3 / limit-modes / me=3 / subme=3 / merange=57 / temporal-mvp / weightp / no-weightb / no-analyze-src-pics / deblock=-3:-3 / no-sao / no-sao-non-deblock / rd=4 / no-early-skip / rskip / no-fast-intra / no-tskip-fast / no-cu-lossless / no-b-intra / no-splitrd-skip / rdpenalty=0 / psy-rd=2.00 / psy-rdoq=1.00 / no-rd-refine / analysis-reuse-mode=0 / no-lossless / cbqpoffs=0 / crqpoffs=0 / rc=crf / crf=17.0 / qcomp=0.60 / qpstep=4 / stats-write=0 / stats-read=0 / vbv-maxrate=160000 / vbv-bufsize=160000 / vbv-init=0.9 / crf-max=0.0 / crf-min=0.0 / ipratio=1.40 / pbratio=1.30 / aq-mode=1 / aq-strength=1.00 / cutree / zone-count=0 / no-strict-cbr / qg-size=32 / no-rc-grain / qpmax=69 / qpmin=0 / no-const-vbv / sar=1 / overscan=0 / videoformat=5 / range=0 / colorprim=9 / transfer=16 / colormatrix=9 / chromaloc=1 / chromaloc-top=2 / chromaloc-bottom=2 / display-window=0 / master-display=G(13250,34500)B(7500,3000)R(34000,16000)WP (15635,16450)L(10000000,0) / max-cll=814,192 / min-luma=0 / max-luma=1023 / log2-max-poc-lsb=8 / vui-timing-info / vui-hrd-info / slices=1 / no-opt-qp-pps / no-opt-ref-list-length-pps / no-multi-pass-opt-rps / scenecut-bias=0.05 / no-opt-cu-delta-qp / no-aq-motion / hdr / hdr-opt / no-dhdr10-opt / analysis-reuse-level=5 / scale-factor=0 / refine-intra=0 / refine-inter=0 / refine-mv=0 / no-limit-sao / ctu-info=0 / no-lowpass-dct / refine-mv-type=0 / copy-pic=1
Default : Yes
Forced : No
Color range : Limited
Color primaries : BT.2020
Matrix coefficients : BT.2020 non-constant

Audio #1
ID : 2
Format : Atmos / TrueHD
Codec ID : A_TRUEHD
Duration : 1h 43mn
Bit rate mode : Variable
Bit rate : 4 914 Kbps
Maximum bit rate : 7 719 Kbps
Channel(s) : Object Based / 8 channels
Channel positions : Object Based / Front: L C R, Side: L R, Back: L R, LFE
Sampling rate : / 48.0 KHz
Frame rate : 1 200.000 fps (40 spf)
Compression mode : Lossless
Stream size : 3.54 GiB (21%)
Language : English


Audio #2
ID : 3
Format : AC-3
Format/Info : Audio Coding 3
Mode extension : CM (complete main)
Format settings, Endianness : Big
Codec ID : A_AC3
Duration : 1h 43mn
Bit rate mode : Constant
Bit rate : 640 Kbps
Channel(s) : 6 channels
Channel positions : Front: L C R, Side: L R, LFE
Sampling rate : 48.0 KHz
Frame rate : 31.250 fps (1536 spf)
Compression mode : Lossy
Stream size : 472 MiB (3%)
Language : English


Audio #3
ID : 7
Format : AC-3
Format/Info : Audio Coding 3
Mode extension : CM (complete main)
Format settings, Endianness : Big
Codec ID : A_AC3
Duration : 1h 43mn
Bit rate mode : Constant
Bit rate : 640 Kbps
Channel(s) : 6 channels
Channel positions : Front: L C R, Side: L R, LFE
Sampling rate : 48.0 KHz
Frame rate : 31.250 fps (1536 spf)
Compression mode : Lossy
Stream size : 472 MiB (3%)
Language : English


Audio #4
ID : 8
Format : AC-3
Format/Info : Audio Coding 3
Mode extension : CM (complete main)
Format settings, Endianness : Big
Codec ID : A_AC3
Duration : 1h 43mn
Bit rate mode : Constant
Bit rate : 640 Kbps
Channel(s) : 6 channels
Channel positions : Front: L C R, Side: L R, LFE
Sampling rate : 48.0 KHz
Frame rate : 31.250 fps (1536 spf)
Compression mode : Lossy
Delay relative to video : 1s 0ms
Stream size : 472 MiB (3%)
Language : AC3 5.1 Thai
Default : Yes
Forced : Yes

Text #1
ID : 4
Format : PGS
Muxing mode : zlib
Codec ID : S_HDMV/PGS
Codec ID/Info : Picture based subtitle format used on BDs/HD-DVDs
Duration : 1h 29mn
Bit rate : 24.0 Kbps
Count of elements : 1750
Stream size : 15.3 MiB (0%)
Title : SDH
Language : English

Text #2
ID : 5
Format : PGS
Muxing mode : zlib
Codec ID : S_HDMV/PGS
Codec ID/Info : Picture based subtitle format used on BDs/HD-DVDs
Duration : 1h 42mn
Bit rate : 18.4 Kbps
Count of elements : 1722
Stream size : 13.5 MiB (0%)
Language : Spanish

Text #3
ID : 6
Format : PGS
Muxing mode : zlib
Codec ID : S_HDMV/PGS
Codec ID/Info : Picture based subtitle format used on BDs/HD-DVDs
Duration : 1h 42mn
Bit rate : 19.5 Kbps
Count of elements : 1656
Stream size : 14.3 MiB (0%)
Language : French

Text #4
ID : 9
Format : PGS
Muxing mode : zlib
Codec ID : S_HDMV/PGS
Codec ID/Info : Picture based subtitle format used on BDs/HD-DVDs
Duration : 1h 42mn
Bit rate : 15.8 Kbps
Count of elements : 1659
Stream size : 11.6 MiB (0%)
Language : Thai
Default : Yes
Forced : Yes

Text #5
ID : 10
Format : PGS
Muxing mode : zlib
Codec ID : S_HDMV/PGS
Codec ID/Info : Picture based subtitle format used on BDs/HD-DVDs
Duration : 1h 30mn
Bit rate : 29.6 Kbps
Count of elements : 2201
Stream size : 19.1 MiB (0%)
Language : English

Text #6
ID : 11
Format : PGS
Muxing mode : zlib
Codec ID : S_HDMV/PGS
Codec ID/Info : Picture based subtitle format used on BDs/HD-DVDs
Duration : 1h 29mn
Bit rate : 24.0 Kbps
Count of elements : 1750
Stream size : 15.3 MiB (0%)
Language : English

Text #7
ID : 12
Format : PGS
Muxing mode : zlib
Codec ID : S_HDMV/PGS
Codec ID/Info : Picture based subtitle format used on BDs/HD-DVDs
Duration : 1h 33mn
Bit rate : 730 bps
Count of elements : 78
Stream size : 499 KiB (0%)
Language : Thai


Download: cornfile
http://cornfile.com/h5ed1vxhi580
Download: mekafile
http://www.mekafile.com/dl.php?f=dt9c85byxQG0